  0
SECTION
  2
HEADER
  9
$ACADVER
  1
AC1021
  9
$DWGCODEPAGE
  3
ANSI_1252
  9
$EXTMAX
 10
2100.0
 20
1485.0
 30
0.0
  9
$EXTMIN
 10
0.0
 20
0.0
 30
0.0
  9
$LIMMIN
 10
0.0
 20
0.0
  9
$LIMMAX
 10
2100.0
 20
1485.0
  9
$VIEWCTR
 10
1050.0
 20
742.5
  9
$VIEWSIZE
 40
1485.0
  9
$CLAYER
  8
0
  9
$LTSCALE
 40
115.5
  9
$CELTYPE
  6
BYLAYER
  9
$DIMSCALE
 40
1.0
  9
$DIMASZ
 40
17.5
  9
$DIMEXO
 40
13.125
  9
$DIMDLI
 40
79.8
  9
$DIMEXE
 40
37.8
  9
$DIMCEN
 40
18.9
  9
$DIMLFAC
 40
1.0
  9
$DIMBLK
  1
_FILLED
  9
$DIMTXT
 40
12.5
  9
$DIMTOL
 70
1
  9
$DIMLIM
 70
0
  9
$DIMTFAC
 40
1.0
  9
$DIMTP
 40
0.005
  9
$DIMTM
 40
0.005
  9
$PDMODE
 70
3
  9
$PDSIZE
 40
0.3125
  9
$HANDSEED
  5
4AA
  9
$TILEMODE
 70
1
  9
$MEASUREMENT
 70
1
  9
$INSUNITS
 70
4
  0
ENDSEC
  0
SECTION
  2
CLASSES
  0
CLASS
  1
ACDBDICTIONARYWDFLT
  2
AcDbDictionaryWithDefault
  3
AutoCAD 2000
 90
0
 91
1
280
0
281
0
  0
CLASS
  1
ACDBPLACEHOLDER
  2
AcDbPlaceHolder
  3
AutoCAD 2000
 90
0
 91
1
280
0
281
0
  0
CLASS
  1
LAYOUT
  2
AcDbLayout
  3
AutoCAD 2000
 90
0
 91
0
280
0
281
0
  0
ENDSEC
  0
SECTION
  2
TABLES
  0
TABLE
  2
VPORT
  5
8
100
AcDbSymbolTable
 70
2
  0
VPORT
  5
1F4
100
AcDbSymbolTableRecord
100
AcDbViewportTableRecord
  2
*ACTIVE
 70
0
 10
0.0
 20
0.0
 11
1.0
 21
1.0
 12
1050.0
 22
742.5
 13
0.0
 23
0.0
 14
1.0
 24
1.0
 15
0.0
 25
0.0
 16
0.0
 26
0.0
 36
1.0
 17
0.0
 27
0.0
 37
0.0
 40
1485.0
 41
1.4141414141
 42
50.0
 43
0.0
 44
0.0
 50
0.0
 51
0.0
 71
0
 72
100
 73
1
 74
1
 75
0
 76
0
 77
0
 78
0
  0
ENDTAB
  0
TABLE
  2
LTYPE
  5
5
100
AcDbSymbolTable
 70
6
  0
LTYPE
  5
14
100
AcDbSymbolTableRecord
100
AcDbLinetypeTableRecord
  2
BYBLOCK
 70
0
  3

 72
65
 73
0
 40
0.0
  0
LTYPE
  5
15
100
AcDbSymbolTableRecord
100
AcDbLinetypeTableRecord
  2
BYLAYER
 70
0
  3

 72
65
 73
0
 40
0.0
  0
LTYPE
  5
16
100
AcDbSymbolTableRecord
100
AcDbLinetypeTableRecord
  2
CONTINUOUS
 70
64
  3
Solid line
 72
65
 73
0
 40
0.0
  0
LTYPE
  5
1F5
100
AcDbSymbolTableRecord
100
AcDbLinetypeTableRecord
  2
CENTER
 70
64
  3
____ _ ____ _ ____ _ ____ _ ____ _ ____ _ ____
 72
65
 73
4
 40
0.6
 49
0.375
 74
0
 49
-0.075
 74
0
 49
0.075
 74
0
 49
-0.075
 74
0
  0
LTYPE
  5
1F6
100
AcDbSymbolTableRecord
100
AcDbLinetypeTableRecord
  2
HIDDEN
 70
64
  3
- - - - - - - - - - - - - - - - - - - -
 72
65
 73
2
 40
0.2
 49
0.1
 74
0
 49
-0.1
 74
0
  0
LTYPE
  5
1F7
100
AcDbSymbolTableRecord
100
AcDbLinetypeTableRecord
  2
PHANTOM
 70
64
  3
_____ _ _ _____ _ _ _____ _ _ _____
 72
65
 73
6
 40
0.8
 49
0.45
 74
0
 49
-0.05
 74
0
 49
0.1
 74
0
 49
-0.05
 74
0
 49
0.1
 74
0
 49
-0.05
 74
0
  0
LTYPE
  5
1F8
100
AcDbSymbolTableRecord
100
AcDbLinetypeTableRecord
  2
DOT
 70
64
  3
. . . . . . . . . . . . . . . . . . . .
 72
65
 73
2
 40
0.2
 49
0.1
 74
0
 49
-0.1
 74
0
  0
LTYPE
  5
1F9
100
AcDbSymbolTableRecord
100
AcDbLinetypeTableRecord
  2
DASHED
 70
64
  3
- - - - - - - - - - - - - - - - - - - -
 72
65
 73
2
 40
0.2
 49
0.1
 74
0
 49
-0.1
 74
0
  0
ENDTAB
  0
TABLE
  2
LAYER
  5
2
100
AcDbSymbolTable
 70
36
  0
LAYER
  5
10
100
AcDbSymbolTableRecord
100
AcDbLayerTableRecord
  2
0
 70
0
 62
7
  6
CONTINUOUS
370
-3
390
F
  0
LAYER
  5
1FA
100
AcDbSymbolTableRecord
100
AcDbLayerTableRecord
  2
DEFAULT_1
 70
0
 62
7
  6
CENTER
370
-3
390
F
  0
LAYER
  5
1FB
100
AcDbSymbolTableRecord
100
AcDbLayerTableRecord
  2
DEFAULT_2
 70
0
 62
8
  6
HIDDEN
370
-3
390
F
  0
LAYER
  5
1FC
100
AcDbSymbolTableRecord
100
AcDbLayerTableRecord
  2
DEFAULT_3
 70
0
 62
7
  6
PHANTOM
370
-3
390
F
  0
LAYER
  5
1FD
100
AcDbSymbolTableRecord
100
AcDbLayerTableRecord
  2
ANSICHT_3D
 70
0
 62
7
  6
CONTINUOUS
370
-3
390
F
  0
LAYER
  5
1FE
100
AcDbSymbolTableRecord
100
AcDbLayerTableRecord
  2
ANSICHT_LINKS
 70
0
 62
7
  6
CONTINUOUS
370
-3
390
F
  0
LAYER
  5
1FF
100
AcDbSymbolTableRecord
100
AcDbLayerTableRecord
  2
ANSICHT_RECHTS
 70
0
 62
7
  6
CONTINUOUS
370
-3
390
F
  0
LAYER
  5
200
100
AcDbSymbolTableRecord
100
AcDbLayerTableRecord
  2
AUSBLENDEN
 70
0
 62
7
  6
CONTINUOUS
370
-3
390
F
  0
LAYER
  5
201
100
AcDbSymbolTableRecord
100
AcDbLayerTableRecord
  2
BEZUGSACHSEN
 70
0
 62
7
  6
CONTINUOUS
370
-3
390
F
  0
LAYER
  5
202
100
AcDbSymbolTableRecord
100
AcDbLayerTableRecord
  2
BEZUGSEBENEN
 70
0
 62
7
  6
CONTINUOUS
370
-3
390
F
  0
LAYER
  5
203
100
AcDbSymbolTableRecord
100
AcDbLayerTableRecord
  2
BG_STARTBEZUEGE
 70
0
 62
7
  6
CONTINUOUS
370
-3
390
F
  0
LAYER
  5
204
100
AcDbSymbolTableRecord
100
AcDbLayerTableRecord
  2
BOHRUNGEN
 70
0
 62
7
  6
CONTINUOUS
370
-3
390
F
  0
LAYER
  5
205
100
AcDbSymbolTableRecord
100
AcDbLayerTableRecord
  2
FASEN
 70
0
 62
7
  6
CONTINUOUS
370
-3
390
F
  0
LAYER
  5
206
100
AcDbSymbolTableRecord
100
AcDbLayerTableRecord
  2
FLAECHEN
 70
0
 62
7
  6
CONTINUOUS
370
-3
390
F
  0
LAYER
  5
207
100
AcDbSymbolTableRecord
100
AcDbLayerTableRecord
  2
GEWINDE
 70
0
 62
7
  6
CONTINUOUS
370
-3
390
F
  0
LAYER
  5
208
100
AcDbSymbolTableRecord
100
AcDbLayerTableRecord
  2
HILFEN
 70
0
 62
7
  6
CONTINUOUS
370
-3
390
F
  0
LAYER
  5
209
100
AcDbSymbolTableRecord
100
AcDbLayerTableRecord
  2
KOSM_3D
 70
0
 62
7
  6
CONTINUOUS
370
-3
390
F
  0
LAYER
  5
20A
100
AcDbSymbolTableRecord
100
AcDbLayerTableRecord
  2
KOSM_NEW_VIEW10
 70
0
 62
7
  6
CONTINUOUS
370
-3
390
F
  0
LAYER
  5
20B
100
AcDbSymbolTableRecord
100
AcDbLayerTableRecord
  2
KURVEN
 70
0
 62
7
  6
CONTINUOUS
370
-3
390
F
  0
LAYER
  5
20C
100
AcDbSymbolTableRecord
100
AcDbLayerTableRecord
  2
LAY0001
 70
0
 62
7
  6
CONTINUOUS
370
-3
390
F
  0
LAYER
  5
20D
100
AcDbSymbolTableRecord
100
AcDbLayerTableRecord
  2
MOTOR
 70
0
 62
7
  6
CONTINUOUS
370
-3
390
F
  0
LAYER
  5
20E
100
AcDbSymbolTableRecord
100
AcDbLayerTableRecord
  2
PLAZIERUNG
 70
0
 62
7
  6
CONTINUOUS
370
-3
390
F
  0
LAYER
  5
20F
100
AcDbSymbolTableRecord
100
AcDbLayerTableRecord
  2
RUNDUNGEN
 70
0
 62
7
  6
CONTINUOUS
370
-3
390
F
  0
LAYER
  5
210
100
AcDbSymbolTableRecord
100
AcDbLayerTableRecord
  2
STOERK
 70
0
 62
7
  6
CONTINUOUS
370
-3
390
F
  0
LAYER
  5
211
100
AcDbSymbolTableRecord
100
AcDbLayerTableRecord
  2
TEIL_STARTBEZUEGE
 70
0
 62
7
  6
CONTINUOUS
370
-3
390
F
  0
LAYER
  5
212
100
AcDbSymbolTableRecord
100
AcDbLayerTableRecord
  2
XSEC_DATUMS
 70
0
 62
7
  6
CONTINUOUS
370
-3
390
F
  0
LAYER
  5
213
100
AcDbSymbolTableRecord
100
AcDbLayerTableRecord
  2
ZEICHNUNGSBEMASSUNGEN
 70
0
 62
7
  6
CONTINUOUS
370
-3
390
F
  0
LAYER
  5
214
100
AcDbSymbolTableRecord
100
AcDbLayerTableRecord
  2
_2D_DELETED_OBJS
 70
0
 62
7
  6
CONTINUOUS
370
-3
390
F
  0
LAYER
  5
215
100
AcDbSymbolTableRecord
100
AcDbLayerTableRecord
  2
_BLACK_HOLE
 70
0
 62
7
  6
CONTINUOUS
370
-3
390
F
  0
ENDTAB
  0
TABLE
  2
STYLE
  5
3
100
AcDbSymbolTable
 70
1
  0
STYLE
  5
11
100
AcDbSymbolTableRecord
100
AcDbTextStyleTableRecord
  2
STANDARD
 70
0
 40
0.0
 41
0.7
 50
0.0
 71
0
 42
0.2
  3
txt
  4

  0
STYLE
  5
216
100
AcDbSymbolTableRecord
100
AcDbTextStyleTableRecord
  2
TEXTSTYLE_1
 70
0
 40
0.0
 41
0.8
 50
0.0
 71
0
 42
0.2
  3
gdt
  4

  0
STYLE
  5
217
100
AcDbSymbolTableRecord
100
AcDbTextStyleTableRecord
  2
TEXTSTYLE_2
 70
0
 40
0.0
 41
0.7
 50
0.0
 71
0
 42
0.2
  3
gdt
  4

  0
STYLE
  5
218
100
AcDbSymbolTableRecord
100
AcDbTextStyleTableRecord
  2
TEXTSTYLE_3
 70
0
 40
0.0
 41
0.6
 50
0.0
 71
0
 42
0.2
  3
txt
  4

  0
ENDTAB
  0
TABLE
  2
VIEW
  5
6
100
AcDbSymbolTable
 70
0
  0
ENDTAB
  0
TABLE
  2
UCS
  5
7
100
AcDbSymbolTable
 70
0
  0
ENDTAB
  0
TABLE
  2
APPID
  5
9
100
AcDbSymbolTable
 70
1
  0
APPID
  5
219
100
AcDbSymbolTableRecord
100
AcDbRegAppTableRecord
  2
ACAD
 70
0
  0
ENDTAB
  0
TABLE
  2
BLOCK_RECORD
  5
1
100
AcDbSymbolTable
 70
0
  0
BLOCK_RECORD
  5
21A
100
AcDbSymbolTableRecord
100
AcDbBlockTableRecord
  2
*Model_Space
  0
BLOCK_RECORD
  5
21B
100
AcDbSymbolTableRecord
100
AcDbBlockTableRecord
  2
*Paper_Space
  0
BLOCK_RECORD
  5
21C
100
AcDbSymbolTableRecord
100
AcDbBlockTableRecord
  2
_FILLED
  0
BLOCK_RECORD
  5
21D
100
AcDbSymbolTableRecord
100
AcDbBlockTableRecord
  2
*D0
  0
BLOCK_RECORD
  5
21E
100
AcDbSymbolTableRecord
100
AcDbBlockTableRecord
  2
*D1
  0
BLOCK_RECORD
  5
21F
100
AcDbSymbolTableRecord
100
AcDbBlockTableRecord
  2
*D2
  0
BLOCK_RECORD
  5
220
100
AcDbSymbolTableRecord
100
AcDbBlockTableRecord
  2
*D3
  0
BLOCK_RECORD
  5
221
100
AcDbSymbolTableRecord
100
AcDbBlockTableRecord
  2
*D4
  0
BLOCK_RECORD
  5
222
100
AcDbSymbolTableRecord
100
AcDbBlockTableRecord
  2
*D5
  0
BLOCK_RECORD
  5
223
100
AcDbSymbolTableRecord
100
AcDbBlockTableRecord
  2
*D6
  0
BLOCK_RECORD
  5
224
100
AcDbSymbolTableRecord
100
AcDbBlockTableRecord
  2
*D7
  0
BLOCK_RECORD
  5
225
100
AcDbSymbolTableRecord
100
AcDbBlockTableRecord
  2
*D8
  0
BLOCK_RECORD
  5
226
100
AcDbSymbolTableRecord
100
AcDbBlockTableRecord
  2
*D9
  0
BLOCK_RECORD
  5
227
100
AcDbSymbolTableRecord
100
AcDbBlockTableRecord
  2
*D10
  0
BLOCK_RECORD
  5
228
100
AcDbSymbolTableRecord
100
AcDbBlockTableRecord
  2
*D11
  0
BLOCK_RECORD
  5
229
100
AcDbSymbolTableRecord
100
AcDbBlockTableRecord
  2
*D12
  0
BLOCK_RECORD
  5
22A
100
AcDbSymbolTableRecord
100
AcDbBlockTableRecord
  2
*D13
  0
BLOCK_RECORD
  5
22B
100
AcDbSymbolTableRecord
100
AcDbBlockTableRecord
  2
*D14
  0
BLOCK_RECORD
  5
22C
100
AcDbSymbolTableRecord
100
AcDbBlockTableRecord
  2
*D15
  0
BLOCK_RECORD
  5
22D
100
AcDbSymbolTableRecord
100
AcDbBlockTableRecord
  2
*D16
  0
BLOCK_RECORD
  5
22E
100
AcDbSymbolTableRecord
100
AcDbBlockTableRecord
  2
*D17
  0
BLOCK_RECORD
  5
22F
100
AcDbSymbolTableRecord
100
AcDbBlockTableRecord
  2
*D18
  0
BLOCK_RECORD
  5
230
100
AcDbSymbolTableRecord
100
AcDbBlockTableRecord
  2
*D19
  0
BLOCK_RECORD
  5
231
100
AcDbSymbolTableRecord
100
AcDbBlockTableRecord
  2
*D20
  0
BLOCK_RECORD
  5
232
100
AcDbSymbolTableRecord
100
AcDbBlockTableRecord
  2
*D21
  0
BLOCK_RECORD
  5
233
100
AcDbSymbolTableRecord
100
AcDbBlockTableRecord
  2
*D22
  0
BLOCK_RECORD
  5
234
100
AcDbSymbolTableRecord
100
AcDbBlockTableRecord
  2
*D23
  0
BLOCK_RECORD
  5
235
100
AcDbSymbolTableRecord
100
AcDbBlockTableRecord
  2
*D24
  0
BLOCK_RECORD
  5
236
100
AcDbSymbolTableRecord
100
AcDbBlockTableRecord
  2
SYMBOL_70_BL3
  0
BLOCK_RECORD
  5
237
100
AcDbSymbolTableRecord
100
AcDbBlockTableRecord
  2
SYMBOL_47_BL2
  0
BLOCK_RECORD
  5
238
100
AcDbSymbolTableRecord
100
AcDbBlockTableRecord
  2
SYMBOL_38_BL1
  0
BLOCK_RECORD
  5
239
100
AcDbSymbolTableRecord
100
AcDbBlockTableRecord
  2
SYMBOL_64_BL0
  0
ENDTAB
  0
TABLE
  2
DIMSTYLE
  5
A
100
AcDbSymbolTable
 70
1
100
AcDbDimStyleTable
 71
0
  0
DIMSTYLE
105
23A
100
AcDbSymbolTableRecord
100
AcDbDimStyleTableRecord
  2
STANDARD
 70
0
  3

  4

 40
1.0
 41
17.5
 42
0.0625
 43
0.38
 44
0.18
 45
0.0
 46
0.0
 47
0.005
 48
0.005
140
12.5
141
0.09
142
0.0
143
25.4
144
1.0
145
0.0
146
1.0
147
0.09
 71
1.0
 72
0.0
 73
0
 74
0
 75
0
 76
0
 77
1
 78
8
170
0
171
2
172
0
173
0
174
0
175
0
176
0
177
0
178
5
270
2
271
3
272
3
273
2
274
2
275
0
280
0
281
0
282
0
283
1
284
8
285
0
286
0
287
3
288
0
340
11
341
21C
342
21C
343
21C
344
21C
  0
DIMSTYLE
105
23B
100
AcDbSymbolTableRecord
100
AcDbDimStyleTableRecord
  2
DIMSTYLE_1
 70
0
  3

  4

 40
1.0
 41
17.5
 42
0.0625
 43
0.38
 44
0.18
 45
0.0
 46
0.0
 47
0.5
 48
0.5
140
12.5
141
0.09
142
0.0
143
25.4
144
1.0
145
0.0
146
1.0
147
0.09
 71
0.0
 72
0.0
 73
0
 74
0
 75
0
 76
0
 77
1
 78
8
170
0
171
2
172
0
173
0
174
0
175
0
176
0
177
0
178
5
270
2
271
3
272
3
273
2
274
2
275
0
280
0
281
0
282
0
283
1
284
8
285
0
286
0
287
3
288
0
340
11
341
21C
342
21C
343
21C
344
21C
  0
DIMSTYLE
105
23C
100
AcDbSymbolTableRecord
100
AcDbDimStyleTableRecord
  2
DIMSTYLE_2
 70
0
  3

  4

 40
1.0
 41
17.5
 42
0.0625
 43
0.38
 44
0.18
 45
0.0
 46
0.0
 47
0.5
 48
0.5
140
12.5
141
0.09
142
0.0
143
25.4
144
1.0
145
0.0
146
1.0
147
0.09
 71
0.0
 72
0.0
 73
0
 74
0
 75
0
 76
0
 77
1
 78
8
170
0
171
2
172
0
173
0
174
0
175
0
176
0
177
0
178
5
270
2
271
2
272
2
273
2
274
2
275
0
280
0
281
0
282
0
283
1
284
8
285
0
286
0
287
3
288
0
340
11
341
21C
342
21C
343
21C
344
21C
  0
DIMSTYLE
105
23D
100
AcDbSymbolTableRecord
100
AcDbDimStyleTableRecord
  2
DIMSTYLE_3
 70
0
  3

  4

 40
1.0
 41
17.5
 42
0.0625
 43
0.38
 44
0.18
 45
0.0
 46
0.0
 47
0.5
 48
0.5
140
12.5
141
0.09
142
0.0
143
25.4
144
1.0
145
0.0
146
1.0
147
0.09
 71
0.0
 72
0.0
 73
0
 74
0
 75
0
 76
0
 77
1
 78
8
170
0
171
2
172
0
173
0
174
0
175
0
176
0
177
0
178
5
270
2
271
2
272
2
273
2
274
2
275
0
280
0
281
0
282
0
283
1
284
8
285
0
286
0
287
3
288
0
340
11
341
21C
342
21C
343
21C
344
21C
  0
DIMSTYLE
105
23E
100
AcDbSymbolTableRecord
100
AcDbDimStyleTableRecord
  2
DIMSTYLE_4
 70
0
  3

  4

 40
1.0
 41
17.5
 42
0.0625
 43
0.38
 44
0.18
 45
0.0
 46
0.0
 47
0.2
 48
0.2
140
12.5
141
0.09
142
0.0
143
25.4
144
1.0
145
0.0
146
1.0
147
0.09
 71
0.0
 72
0.0
 73
0
 74
0
 75
0
 76
0
 77
1
 78
8
170
0
171
2
172
0
173
0
174
0
175
0
176
0
177
0
178
5
270
2
271
3
272
3
273
2
274
2
275
0
280
0
281
0
282
0
283
1
284
8
285
0
286
0
287
3
288
0
340
11
341
21C
342
21C
343
21C
344
21C
  0
DIMSTYLE
105
23F
100
AcDbSymbolTableRecord
100
AcDbDimStyleTableRecord
  2
DIMSTYLE_5
 70
0
  3

  4

 40
1.0
 41
17.5
 42
0.0625
 43
0.38
 44
0.18
 45
0.0
 46
0.0
 47
-0.01
 48
0.04
140
12.5
141
0.09
142
0.0
143
25.4
144
1.0
145
0.0
146
1.0
147
0.09
 71
0.0
 72
0.0
 73
0
 74
0
 75
0
 76
0
 77
1
 78
8
170
0
171
2
172
0
173
0
174
0
175
0
176
0
177
0
178
5
270
2
271
2
272
2
273
2
274
2
275
0
280
0
281
0
282
0
283
1
284
8
285
0
286
0
287
3
288
0
340
11
341
21C
342
21C
343
21C
344
21C
  0
DIMSTYLE
105
240
100
AcDbSymbolTableRecord
100
AcDbDimStyleTableRecord
  2
DIMSTYLE_6
 70
0
  3

  4

 40
1.0
 41
17.5
 42
0.0625
 43
0.38
 44
0.18
 45
0.0
 46
0.0
 47
0.0
 48
3.0
140
12.5
141
0.09
142
0.0
143
25.4
144
1.0
145
0.0
146
0.6
147
0.09
 71
1.0
 72
0.0
 73
0
 74
0
 75
0
 76
0
 77
1
 78
8
170
0
171
2
172
0
173
0
174
0
175
0
176
0
177
0
178
5
270
2
271
2
272
2
273
2
274
2
275
0
280
0
281
0
282
0
283
1
284
8
285
0
286
0
287
3
288
0
340
11
341
21C
342
21C
343
21C
344
21C
  0
DIMSTYLE
105
241
100
AcDbSymbolTableRecord
100
AcDbDimStyleTableRecord
  2
DIMSTYLE_7
 70
0
  3

  4

 40
1.0
 41
17.5
 42
0.0625
 43
0.38
 44
0.18
 45
0.0
 46
0.0
 47
0.3
 48
0.3
140
12.5
141
0.09
142
0.0
143
25.4
144
1.0
145
0.0
146
1.0
147
0.09
 71
0.0
 72
0.0
 73
0
 74
0
 75
0
 76
0
 77
1
 78
8
170
0
171
2
172
0
173
0
174
0
175
0
176
0
177
0
178
5
270
2
271
3
272
3
273
2
274
2
275
0
280
0
281
0
282
0
283
1
284
8
285
0
286
0
287
3
288
0
340
11
341
21C
342
21C
343
21C
344
21C
  0
DIMSTYLE
105
242
100
AcDbSymbolTableRecord
100
AcDbDimStyleTableRecord
  2
DIMSTYLE_8
 70
0
  3

  4

 40
1.0
 41
17.5
 42
0.0625
 43
0.38
 44
0.18
 45
0.0
 46
0.0
 47
0.001
 48
0.001
140
12.5
141
0.09
142
0.0
143
25.4
144
1.0
145
0.0
146
1.0
147
0.09
 71
0.0
 72
0.0
 73
0
 74
0
 75
0
 76
0
 77
1
 78
8
170
0
171
2
172
0
173
0
174
0
175
0
176
0
177
0
178
5
270
2
271
3
272
3
273
2
274
2
275
0
280
0
281
0
282
0
283
1
284
8
285
0
286
0
287
3
288
0
340
11
341
21C
342
21C
343
21C
344
21C
  0
DIMSTYLE
105
243
100
AcDbSymbolTableRecord
100
AcDbDimStyleTableRecord
  2
DIMSTYLE_9
 70
0
  3

  4

 40
1.0
 41
17.5
 42
0.0625
 43
0.38
 44
0.18
 45
0.0
 46
0.0
 47
0.2
 48
0.2
140
12.5
141
0.09
142
0.0
143
25.4
144
1.0
145
0.0
146
1.0
147
0.09
 71
0.0
 72
0.0
 73
0
 74
0
 75
0
 76
0
 77
1
 78
8
170
0
171
2
172
0
173
0
174
0
175
0
176
0
177
0
178
5
270
2
271
2
272
2
273
2
274
2
275
0
280
0
281
0
282
0
283
1
284
8
285
0
286
0
287
3
288
0
340
11
341
21C
342
21C
343
21C
344
21C
  0
DIMSTYLE
105
244
100
AcDbSymbolTableRecord
100
AcDbDimStyleTableRecord
  2
DIMSTYLE_10
 70
0
  3

  4

 40
1.0
 41
17.5
 42
0.0625
 43
0.38
 44
0.18
 45
0.0
 46
0.0
 47
0.5
 48
0.5
140
12.5
141
0.09
142
0.0
143
25.4
144
1.0
145
0.0
146
1.0
147
0.09
 71
0.0
 72
0.0
 73
0
 74
0
 75
0
 76
0
 77
1
 78
8
170
0
171
2
172
0
173
0
174
0
175
0
176
0
177
0
178
5
270
2
271
1
272
1
273
2
274
2
275
0
280
0
281
0
282
0
283
1
284
8
285
0
286
0
287
3
288
0
340
11
341
21C
342
21C
343
21C
344
21C
  0
DIMSTYLE
105
245
100
AcDbSymbolTableRecord
100
AcDbDimStyleTableRecord
  2
DIMSTYLE_11
 70
0
  3

  4

 40
1.0
 41
17.5
 42
0.0625
 43
0.38
 44
0.18
 45
0.0
 46
0.0
 47
0.3
 48
0.3000000003
140
12.5
141
0.09
142
0.0
143
25.4
144
1.0
145
0.0
146
0.6
147
0.09
 71
1.0
 72
0.0
 73
0
 74
0
 75
0
 76
0
 77
1
 78
8
170
0
171
2
172
0
173
0
174
0
175
0
176
0
177
0
178
5
270
2
271
2
272
2
273
2
274
2
275
0
280
0
281
0
282
0
283
1
284
8
285
0
286
0
287
3
288
0
340
11
341
21C
342
21C
343
21C
344
21C
  0
DIMSTYLE
105
246
100
AcDbSymbolTableRecord
100
AcDbDimStyleTableRecord
  2
DIMSTYLE_12
 70
0
  3

  4

 40
1.0
 41
17.5
 42
0.0625
 43
0.38
 44
0.18
 45
0.0
 46
0.0
 47
0.5
 48
0.5
140
12.5
141
0.09
142
0.0
143
25.4
144
1.0
145
0.0
146
1.0
147
0.09
 71
0.0
 72
0.0
 73
0
 74
0
 75
0
 76
0
 77
1
 78
8
170
0
171
2
172
0
173
0
174
0
175
0
176
0
177
0
178
5
270
2
271
3
272
3
273
2
274
2
275
0
280
0
281
0
282
0
283
1
284
8
285
0
286
0
287
3
288
0
340
11
341
21C
342
21C
343
21C
344
21C
  0
DIMSTYLE
105
247
100
AcDbSymbolTableRecord
100
AcDbDimStyleTableRecord
  2
DIMSTYLE_13
 70
0
  3

  4

 40
1.0
 41
17.5
 42
0.0625
 43
0.38
 44
0.18
 45
0.0
 46
0.0
 47
0.1
 48
0.1
140
12.5
141
0.09
142
0.0
143
25.4
144
1.0
145
0.0
146
1.0
147
0.09
 71
0.0
 72
0.0
 73
0
 74
0
 75
0
 76
0
 77
1
 78
8
170
0
171
2
172
0
173
0
174
0
175
0
176
0
177
0
178
5
270
2
271
3
272
3
273
2
274
2
275
0
280
0
281
0
282
0
283
1
284
8
285
0
286
0
287
3
288
0
340
11
341
21C
342
21C
343
21C
344
21C
  0
ENDTAB
  0
ENDSEC
  0
SECTION
  2
BLOCKS
  0
BLOCK
  5
20
100
AcDbEntity
  8
0
100
AcDbBlockBegin
  2
*Model_Space
 70
0
 10
0.0
 20
0.0
 30
0.0
  3
*Model_Space
  1

  0
ENDBLK
  5
21
100
AcDbEntity
  8
0
100
AcDbBlockEnd
  0
BLOCK
  5
1C
100
AcDbEntity
  8
0
100
AcDbBlockBegin
  2
*Paper_Space
 70
0
 10
0.0
 20
0.0
 30
0.0
  3
*Paper_Space
  1

  0
ENDBLK
  5
1D
100
AcDbEntity
  8
0
100
AcDbBlockEnd
  0
BLOCK
  5
248
100
AcDbEntity
  8
0
100
AcDbBlockBegin
 62
2
  6
CONTINUOUS
  2
SYMBOL_70_BL3
 70
64
 10
1130.8293319903
 20
870.6812558272
  3
SYMBOL_70_BL3
  1

  0
LINE
  5
249
100
AcDbEntity
  8
0
100
AcDbLine
 62
2
  6
CONTINUOUS
 10
1099.5793319903
 20
878.2091442734
 11
1099.5793319903
 21
863.2091442734
  0
LINE
  5
24A
100
AcDbEntity
  8
0
100
AcDbLine
 62
2
  6
CONTINUOUS
 10
1099.5793319903
 20
878.1812558272
 11
1112.0793319903
 21
870.6812558272
  0
LINE
  5
24B
100
AcDbEntity
  8
0
100
AcDbLine
 62
2
  6
CONTINUOUS
 10
1112.0793319903
 20
870.6812558272
 11
1099.5793319903
 21
863.1812558272
  0
LINE
  5
24C
100
AcDbEntity
  8
0
100
AcDbLine
 62
2
  6
CONTINUOUS
 10
1112.0793319903
 20
870.6812558272
 11
1127.0793319903
 21
870.6812558272
  0
LINE
  5
24D
100
AcDbEntity
  8
0
100
AcDbLine
 62
2
  6
CONTINUOUS
 10
1127.0793319903
 20
888.1812558272
 11
1127.0793319903
 21
853.1812558272
  0
LINE
  5
24E
100
AcDbEntity
  8
0
100
AcDbLine
 62
2
  6
CONTINUOUS
 10
1127.0793319903
 20
853.1812558272
 11
1162.0793319903
 21
853.1812558272
  0
LINE
  5
24F
100
AcDbEntity
  8
0
100
AcDbLine
 62
2
  6
CONTINUOUS
 10
1162.0793319903
 20
853.1812558272
 11
1162.0793319903
 21
888.1812558272
  0
LINE
  5
250
100
AcDbEntity
  8
0
100
AcDbLine
 62
2
  6
CONTINUOUS
 10
1162.0793319903
 20
888.1812558272
 11
1127.0793319903
 21
888.1812558272
  0
LINE
  5
251
100
AcDbEntity
  8
0
100
AcDbLine
 62
2
  6
CONTINUOUS
 10
1099.5793319903
 20
863.6952000503
 11
1100.4359056955
 21
863.6952000503
  0
LINE
  5
252
100
AcDbEntity
  8
0
100
AcDbLine
 62
2
  6
CONTINUOUS
 10
1099.5793319903
 20
864.1952000503
 11
1101.2692390288
 21
864.1952000503
  0
LINE
  5
253
100
AcDbEntity
  8
0
100
AcDbLine
 62
2
  6
CONTINUOUS
 10
1099.5793319903
 20
864.6952000503
 11
1102.1025723621
 21
864.6952000503
  0
LINE
  5
254
100
AcDbEntity
  8
0
100
AcDbLine
 62
2
  6
CONTINUOUS
 10
1099.5793319903
 20
865.1952000503
 11
1102.9359056955
 21
865.1952000503
  0
LINE
  5
255
100
AcDbEntity
  8
0
100
AcDbLine
 62
2
  6
CONTINUOUS
 10
1099.5793319903
 20
865.6952000503
 11
1103.7692390288
 21
865.6952000503
  0
LINE
  5
256
100
AcDbEntity
  8
0
100
AcDbLine
 62
2
  6
CONTINUOUS
 10
1099.5793319903
 20
866.1952000503
 11
1104.6025723621
 21
866.1952000503
  0
LINE
  5
257
100
AcDbEntity
  8
0
100
AcDbLine
 62
2
  6
CONTINUOUS
 10
1099.5793319903
 20
866.6952000503
 11
1105.4359056955
 21
866.6952000503
  0
LINE
  5
258
100
AcDbEntity
  8
0
100
AcDbLine
 62
2
  6
CONTINUOUS
 10
1099.5793319903
 20
867.1952000503
 11
1106.2692390288
 21
867.1952000503
  0
LINE
  5
259
100
AcDbEntity
  8
0
100
AcDbLine
 62
2
  6
CONTINUOUS
 10
1099.5793319903
 20
867.6952000503
 11
1107.1025723621
 21
867.6952000503
  0
LINE
  5
25A
100
AcDbEntity
  8
0
100
AcDbLine
 62
2
  6
CONTINUOUS
 10
1099.5793319903
 20
868.1952000503
 11
1107.9359056955
 21
868.1952000503
  0
LINE
  5
25B
100
AcDbEntity
  8
0
100
AcDbLine
 62
2
  6
CONTINUOUS
 10
1099.5793319903
 20
868.6952000503
 11
1108.7692390288
 21
868.6952000503
  0
LINE
  5
25C
100
AcDbEntity
  8
0
100
AcDbLine
 62
2
  6
CONTINUOUS
 10
1099.5793319903
 20
869.1952000503
 11
1109.6025723621
 21
869.1952000503
  0
LINE
  5
25D
100
AcDbEntity
  8
0
100
AcDbLine
 62
2
  6
CONTINUOUS
 10
1099.5793319903
 20
869.6952000503
 11
1110.4359056955
 21
869.6952000503
  0
LINE
  5
25E
100
AcDbEntity
  8
0
100
AcDbLine
 62
2
  6
CONTINUOUS
 10
1099.5793319903
 20
870.1952000503
 11
1111.2692390288
 21
870.1952000503
  0
LINE
  5
25F
100
AcDbEntity
  8
0
100
AcDbLine
 62
2
  6
CONTINUOUS
 10
1099.5793319903
 20
870.6952000503
 11
1112.0560916184
 21
870.6952000503
  0
LINE
  5
260
100
AcDbEntity
  8
0
100
AcDbLine
 62
2
  6
CONTINUOUS
 10
1099.5793319903
 20
871.1952000503
 11
1111.2227582851
 21
871.1952000503
  0
LINE
  5
261
100
AcDbEntity
  8
0
100
AcDbLine
 62
2
  6
CONTINUOUS
 10
1099.5793319903
 20
871.6952000503
 11
1110.3894249518
 21
871.6952000503
  0
LINE
  5
262
100
AcDbEntity
  8
0
100
AcDbLine
 62
2
  6
CONTINUOUS
 10
1099.5793319903
 20
872.1952000503
 11
1109.5560916184
 21
872.1952000503
  0
LINE
  5
263
100
AcDbEntity
  8
0
100
AcDbLine
 62
2
  6
CONTINUOUS
 10
1099.5793319903
 20
872.6952000503
 11
1108.7227582851
 21
872.6952000503
  0
LINE
  5
264
100
AcDbEntity
  8
0
100
AcDbLine
 62
2
  6
CONTINUOUS
 10
1099.5793319903
 20
873.1952000503
 11
1107.8894249518
 21
873.1952000503
  0
LINE
  5
265
100
AcDbEntity
  8
0
100
AcDbLine
 62
2
  6
CONTINUOUS
 10
1099.5793319903
 20
873.6952000503
 11
1107.0560916184
 21
873.6952000503
  0
LINE
  5
266
100
AcDbEntity
  8
0
100
AcDbLine
 62
2
  6
CONTINUOUS
 10
1099.5793319903
 20
874.1952000503
 11
1106.2227582851
 21
874.1952000503
  0
LINE
  5
267
100
AcDbEntity
  8
0
100
AcDbLine
 62
2
  6
CONTINUOUS
 10
1099.5793319903
 20
874.6952000503
 11
1105.3894249518
 21
874.6952000503
  0
LINE
  5
268
100
AcDbEntity
  8
0
100
AcDbLine
 62
2
  6
CONTINUOUS
 10
1099.5793319903
 20
875.1952000503
 11
1104.5560916184
 21
875.1952000503
  0
LINE
  5
269
100
AcDbEntity
  8
0
100
AcDbLine
 62
2
  6
CONTINUOUS
 10
1099.5793319903
 20
875.6952000503
 11
1103.7227582851
 21
875.6952000503
  0
LINE
  5
26A
100
AcDbEntity
  8
0
100
AcDbLine
 62
2
  6
CONTINUOUS
 10
1099.5793319903
 20
876.1952000503
 11
1102.8894249518
 21
876.1952000503
  0
LINE
  5
26B
100
AcDbEntity
  8
0
100
AcDbLine
 62
2
  6
CONTINUOUS
 10
1099.5793319903
 20
876.6952000503
 11
1102.0560916184
 21
876.6952000503
  0
LINE
  5
26C
100
AcDbEntity
  8
0
100
AcDbLine
 62
2
  6
CONTINUOUS
 10
1099.5793319903
 20
877.1952000503
 11
1101.2227582851
 21
877.1952000503
  0
LINE
  5
26D
100
AcDbEntity
  8
0
100
AcDbLine
 62
2
  6
CONTINUOUS
 10
1099.5793319903
 20
877.6952000503
 11
1100.3894249518
 21
877.6952000503
  0
ENDBLK
  5
26E
100
AcDbEntity
  8
0
  6
BYBLOCK
 62
0
100
AcDbBlockEnd
  0
BLOCK
  5
26F
100
AcDbEntity
  8
0
100
AcDbBlockBegin
 62
2
  6
CONTINUOUS
  2
SYMBOL_47_BL2
 70
64
 10
1365.9510261439
 20
1156.8015240848
  3
SYMBOL_47_BL2
  1

  0
LINE
  5
270
100
AcDbEntity
  8
0
100
AcDbLine
 62
2
  6
CONTINUOUS
 10
1285.9510466137
 20
1174.3119884405
 11
1285.9510466137
 21
1139.3120002961
  0
LINE
  5
271
100
AcDbEntity
  8
0
100
AcDbLine
 62
2
  6
CONTINUOUS
 10
1285.9510466137
 20
1139.3120002961
 11
1395.9510093533
 21
1139.3120002961
  0
LINE
  5
272
100
AcDbEntity
  8
0
100
AcDbLine
 62
2
  6
CONTINUOUS
 10
1421.6604373284
 20
1139.2172648259
 11
1421.6604373284
 21
1174.3857833438
  0
LINE
  5
273
100
AcDbEntity
  8
0
100
AcDbLine
 62
2
  6
CONTINUOUS
 10
1395.9510093533
 20
1174.3119884405
 11
1285.9510466137
 21
1174.3119884405
  0
LINE
  5
274
100
AcDbEntity
  8
0
100
AcDbLine
 62
2
  6
CONTINUOUS
 10
1320.9510347581
 20
1174.3119884405
 11
1320.9510347581
 21
1139.3120002961
  0
LINE
  5
275
100
AcDbEntity
  8
0
100
AcDbLine
 62
2
  6
CONTINUOUS
 10
1395.9510093533
 20
1174.3119884405
 11
1395.9510093533
 21
1139.3120002961
  0
LINE
  5
276
100
AcDbEntity
  8
0
100
AcDbLine
 62
2
  6
CONTINUOUS
 10
1395.9510093533
 20
1174.3119884405
 11
1445.8453945074
 21
1174.3857833438
  0
LINE
  5
277
100
AcDbEntity
  8
0
100
AcDbLine
 62
2
  6
CONTINUOUS
 10
1395.8913126486
 20
1139.1116536592
 11
1445.9510056741
 21
1139.2172648259
  0
LINE
  5
278
100
AcDbEntity
  8
0
100
AcDbLine
 62
2
  6
CONTINUOUS
 10
1445.8453945074
 20
1139.3228759926
 11
1445.8453945074
 21
1174.4913945105
  0
TEXT
  5
279
100
AcDbEntity
  8
0
100
AcDbText
 62
5
  6
CONTINUOUS
 10
1293.293737318
 20
1151.6994500717
  7
TEXTSTYLE_2
 40
12.000000384
  1
h
 41
1.0
 72
0
100
AcDbText
  0
ENDBLK
  5
27A
100
AcDbEntity
  8
0
  6
BYBLOCK
 62
0
100
AcDbBlockEnd
  0
BLOCK
  5
27B
100
AcDbEntity
  8
0
100
AcDbBlockBegin
 62
2
  6
CONTINUOUS
  2
SYMBOL_38_BL1
 70
64
 10
1384.5793319903
 20
1082.7745157661
  3
SYMBOL_38_BL1
  1

  0
LINE
  5
27C
100
AcDbEntity
  8
0
100
AcDbLine
 62
2
  6
CONTINUOUS
 10
1392.0932762134
 20
1051.5245157661
 11
1377.0932762134
 21
1051.5245157661
  0
LINE
  5
27D
100
AcDbEntity
  8
0
100
AcDbLine
 62
2
  6
CONTINUOUS
 10
1367.0793319903
 20
1114.0245157661
 11
1402.0793319903
 21
1114.0245157661
  0
LINE
  5
27E
100
AcDbEntity
  8
0
100
AcDbLine
 62
2
  6
CONTINUOUS
 10
1402.0793319903
 20
1114.0245157661
 11
1402.0793319903
 21
1079.0245157661
  0
LINE
  5
27F
100
AcDbEntity
  8
0
100
AcDbLine
 62
2
  6
CONTINUOUS
 10
1402.0793319903
 20
1079.0245157661
 11
1367.0793319903
 21
1079.0245157661
  0
LINE
  5
280
100
AcDbEntity
  8
0
100
AcDbLine
 62
2
  6
CONTINUOUS
 10
1367.0793319903
 20
1079.0245157661
 11
1367.0793319903
 21
1114.0245157661
  0
LINE
  5
281
100
AcDbEntity
  8
0
100
AcDbLine
 62
2
  6
CONTINUOUS
 10
1377.0653877672
 20
1051.5245157661
 11
1384.5793319903
 21
1064.0245157661
  0
LINE
  5
282
100
AcDbEntity
  8
0
100
AcDbLine
 62
2
  6
CONTINUOUS
 10
1384.5793319903
 20
1064.0245157661
 11
1392.0653877672
 21
1051.5245157661
  0
LINE
  5
283
100
AcDbEntity
  8
0
100
AcDbLine
 62
2
  6
CONTINUOUS
 10
1384.5793319903
 20
1064.0245157661
 11
1384.5793319903
 21
1079.0245157661
  0
LINE
  5
284
100
AcDbEntity
  8
0
100
AcDbLine
 62
2
  6
CONTINUOUS
 10
1377.5793319903
 20
1051.5245157661
 11
1377.5793319903
 21
1052.3794998594
  0
LINE
  5
285
100
AcDbEntity
  8
0
100
AcDbLine
 62
2
  6
CONTINUOUS
 10
1378.0793319903
 20
1051.5245157661
 11
1378.0793319903
 21
1053.2112867099
  0
LINE
  5
286
100
AcDbEntity
  8
0
100
AcDbLine
 62
2
  6
CONTINUOUS
 10
1378.5793319903
 20
1051.5245157661
 11
1378.5793319903
 21
1054.0430735603
  0
LINE
  5
287
100
AcDbEntity
  8
0
100
AcDbLine
 62
2
  6
CONTINUOUS
 10
1379.0793319903
 20
1051.5245157661
 11
1379.0793319903
 21
1054.8748604108
  0
LINE
  5
288
100
AcDbEntity
  8
0
100
AcDbLine
 62
2
  6
CONTINUOUS
 10
1379.5793319903
 20
1051.5245157661
 11
1379.5793319903
 21
1055.7066472613
  0
LINE
  5
289
100
AcDbEntity
  8
0
100
AcDbLine
 62
2
  6
CONTINUOUS
 10
1380.0793319903
 20
1051.5245157661
 11
1380.0793319903
 21
1056.5384341118
  0
LINE
  5
28A
100
AcDbEntity
  8
0
100
AcDbLine
 62
2
  6
CONTINUOUS
 10
1380.5793319903
 20
1051.5245157661
 11
1380.5793319903
 21
1057.3702209623
  0
LINE
  5
28B
100
AcDbEntity
  8
0
100
AcDbLine
 62
2
  6
CONTINUOUS
 10
1381.0793319903
 20
1051.5245157661
 11
1381.0793319903
 21
1058.2020078127
  0
LINE
  5
28C
100
AcDbEntity
  8
0
100
AcDbLine
 62
2
  6
CONTINUOUS
 10
1381.5793319903
 20
1051.5245157661
 11
1381.5793319903
 21
1059.0337946632
  0
LINE
  5
28D
100
AcDbEntity
  8
0
100
AcDbLine
 62
2
  6
CONTINUOUS
 10
1382.0793319903
 20
1051.5245157661
 11
1382.0793319903
 21
1059.8655815137
  0
LINE
  5
28E
100
AcDbEntity
  8
0
100
AcDbLine
 62
2
  6
CONTINUOUS
 10
1382.5793319903
 20
1051.5245157661
 11
1382.5793319903
 21
1060.6973683642
  0
LINE
  5
28F
100
AcDbEntity
  8
0
100
AcDbLine
 62
2
  6
CONTINUOUS
 10
1383.0793319903
 20
1051.5245157661
 11
1383.0793319903
 21
1061.5291552146
  0
LINE
  5
290
100
AcDbEntity
  8
0
100
AcDbLine
 62
2
  6
CONTINUOUS
 10
1383.5793319903
 20
1051.5245157661
 11
1383.5793319903
 21
1062.3609420651
  0
LINE
  5
291
100
AcDbEntity
  8
0
100
AcDbLine
 62
2
  6
CONTINUOUS
 10
1384.0793319903
 20
1051.5245157661
 11
1384.0793319903
 21
1063.1927289156
  0
LINE
  5
292
100
AcDbEntity
  8
0
100
AcDbLine
 62
2
  6
CONTINUOUS
 10
1384.5793319903
 20
1051.5245157661
 11
1384.5793319903
 21
1064.0245157661
  0
LINE
  5
293
100
AcDbEntity
  8
0
100
AcDbLine
 62
2
  6
CONTINUOUS
 10
1385.0793319903
 20
1051.5245157661
 11
1385.0793319903
 21
1063.1896301886
  0
LINE
  5
294
100
AcDbEntity
  8
0
100
AcDbLine
 62
2
  6
CONTINUOUS
 10
1385.5793319903
 20
1051.5245157661
 11
1385.5793319903
 21
1062.3547446112
  0
LINE
  5
295
100
AcDbEntity
  8
0
100
AcDbLine
 62
2
  6
CONTINUOUS
 10
1386.0793319903
 20
1051.5245157661
 11
1386.0793319903
 21
1061.5198590338
  0
LINE
  5
296
100
AcDbEntity
  8
0
100
AcDbLine
 62
2
  6
CONTINUOUS
 10
1386.5793319903
 20
1051.5245157661
 11
1386.5793319903
 21
1060.6849734563
  0
LINE
  5
297
100
AcDbEntity
  8
0
100
AcDbLine
 62
2
  6
CONTINUOUS
 10
1387.0793319903
 20
1051.5245157661
 11
1387.0793319903
 21
1059.8500878789
  0
LINE
  5
298
100
AcDbEntity
  8
0
100
AcDbLine
 62
2
  6
CONTINUOUS
 10
1387.5793319903
 20
1051.5245157661
 11
1387.5793319903
 21
1059.0152023015
  0
LINE
  5
299
100
AcDbEntity
  8
0
100
AcDbLine
 62
2
  6
CONTINUOUS
 10
1388.0793319903
 20
1051.5245157661
 11
1388.0793319903
 21
1058.180316724
  0
LINE
  5
29A
100
AcDbEntity
  8
0
100
AcDbLine
 62
2
  6
CONTINUOUS
 10
1388.5793319903
 20
1051.5245157661
 11
1388.5793319903
 21
1057.3454311466
  0
LINE
  5
29B
100
AcDbEntity
  8
0
100
AcDbLine
 62
2
  6
CONTINUOUS
 10
1389.0793319903
 20
1051.5245157661
 11
1389.0793319903
 21
1056.5105455692
  0
LINE
  5
29C
100
AcDbEntity
  8
0
100
AcDbLine
 62
2
  6
CONTINUOUS
 10
1389.5793319903
 20
1051.5245157661
 11
1389.5793319903
 21
1055.6756599917
  0
LINE
  5
29D
100
AcDbEntity
  8
0
100
AcDbLine
 62
2
  6
CONTINUOUS
 10
1390.0793319903
 20
1051.5245157661
 11
1390.0793319903
 21
1054.8407744143
  0
LINE
  5
29E
100
AcDbEntity
  8
0
100
AcDbLine
 62
2
  6
CONTINUOUS
 10
1390.5793319903
 20
1051.5245157661
 11
1390.5793319903
 21
1054.0058888369
  0
LINE
  5
29F
100
AcDbEntity
  8
0
100
AcDbLine
 62
2
  6
CONTINUOUS
 10
1391.0793319903
 20
1051.5245157661
 11
1391.0793319903
 21
1053.1710032594
  0
LINE
  5
2A0
100
AcDbEntity
  8
0
100
AcDbLine
 62
2
  6
CONTINUOUS
 10
1391.5793319903
 20
1051.5245157661
 11
1391.5793319903
 21
1052.336117682
  0
ENDBLK
  5
2A1
100
AcDbEntity
  8
0
  6
BYBLOCK
 62
0
100
AcDbBlockEnd
  0
BLOCK
  5
2A2
100
AcDbEntity
  8
0
100
AcDbBlockBegin
 62
2
  6
CONTINUOUS
  2
SYMBOL_64_BL0
 70
64
 10
1299.8486994308
 20
839.2305619768
  3
SYMBOL_64_BL0
  1

  0
TEXT
  5
2A3
100
AcDbEntity
  8
0
100
AcDbText
 62
5
  6
CONTINUOUS
 10
1266.2772708593
 20
831.7305619768
  7
TEXTSTYLE_2
 40
15.0
  1
n
 41
1.0
 72
0
100
AcDbText
  0
TEXT
  5
2A4
100
AcDbEntity
  8
0
100
AcDbText
 62
5
  6
CONTINUOUS
 10
1286.2772708593
 20
831.7305619768
  7
STANDARD
 40
15.0
  1
    
 41
0.7857142857
 72
0
100
AcDbText
  0
TEXT
  5
2A5
100
AcDbEntity
  8
0
100
AcDbText
 62
5
  6
CONTINUOUS
 10
1230.3486994308
 20
833.2305619768
  7
TEXTSTYLE_2
 40
12.0
  1
b
 41
1.0
 72
0
100
AcDbText
  0
LINE
  5
2A6
100
AcDbEntity
  8
0
100
AcDbLine
 62
2
  6
CONTINUOUS
 10
1227.3486994308
 20
856.7305619768
 11
1227.3486994308
 21
821.7305619768
  0
LINE
  5
2A7
100
AcDbEntity
  8
0
100
AcDbLine
 62
2
  6
CONTINUOUS
 10
1227.3486994308
 20
821.7305619768
 11
1337.3486994308
 21
821.7305619768
  0
LINE
  5
2A8
100
AcDbEntity
  8
0
100
AcDbLine
 62
2
  6
CONTINUOUS
 10
1372.3486994308
 20
821.7305619768
 11
1372.3486994308
 21
856.7305619768
  0
LINE
  5
2A9
100
AcDbEntity
  8
0
100
AcDbLine
 62
2
  6
CONTINUOUS
 10
1337.3486994308
 20
856.7305619768
 11
1227.3486994308
 21
856.7305619768
  0
LINE
  5
2AA
100
AcDbEntity
  8
0
100
AcDbLine
 62
2
  6
CONTINUOUS
 10
1262.3486994308
 20
856.7305619768
 11
1262.3486994308
 21
821.7305619768
  0
LINE
  5
2AB
100
AcDbEntity
  8
0
100
AcDbLine
 62
2
  6
CONTINUOUS
 10
1337.3486994308
 20
856.7305619768
 11
1337.3486994308
 21
821.7305619768
  0
LINE
  5
2AC
100
AcDbEntity
  8
0
100
AcDbLine
 62
2
  6
CONTINUOUS
 10
1337.3486994308
 20
856.7305619768
 11
1372.3486994308
 21
856.7305619768
  0
LINE
  5
2AD
100
AcDbEntity
  8
0
100
AcDbLine
 62
2
  6
CONTINUOUS
 10
1337.3486994308
 20
821.7305619768
 11
1372.3486994308
 21
821.7305619768
  0
ENDBLK
  5
2AE
100
AcDbEntity
  8
0
  6
BYBLOCK
 62
0
100
AcDbBlockEnd
  0
BLOCK
  5
2AF
100
AcDbEntity
  8
0
100
AcDbBlockBegin
  2
_FILLED
 70
64
 10
0.0
 20
0.0
  3
_FILLED
  1

  0
SOLID
  5
2B0
100
AcDbEntity
  8
0
  6
BYBLOCK
 62
0
100
AcDbTrace
 10
0.0
 20
0.0
 11
-1.0
 21
0.125
 12
-1.0
 22
-0.125
 13
-1.0
 23
-0.125
  0
ENDBLK
  5
2B1
100
AcDbEntity
  8
0
  6
BYBLOCK
 62
0
100
AcDbBlockEnd
  0
BLOCK
  5
2B2
100
AcDbEntity
  8
ZEICHNUNGSBEMASSUNGEN
100
AcDbBlockBegin
 62
2
  6
CONTINUOUS
  2
*D0
 70
65
 10
0.0
 20
0.0
  3
*D0
  1

  0
MTEXT
  5
2B3
100
AcDbEntity
  8
ZEICHNUNGSBEMASSUNGEN
100
AcDbMText
 62
5
  6
CONTINUOUS
  7
STANDARD
 71
2
 72
1
 10
1009.7627274531
 20
1223.1495157661
 30
0.0
 11
1.0
 21
0.0
 31
0.0
 44
0.9
  1
365
 40
12.5
 41
27.6785714286
  0
LINE
  5
2B4
100
AcDbEntity
  8
ZEICHNUNGSBEMASSUNGEN
100
AcDbLine
 62
2
  6
CONTINUOUS
 10
1209.5793319903
 20
1017.0245157661
 11
1209.5793319903
 21
1215.0245157661
  0
LINE
  5
2B5
100
AcDbEntity
  8
ZEICHNUNGSBEMASSUNGEN
100
AcDbLine
 62
2
  6
CONTINUOUS
 10
844.5793319903
 20
975.9942469034
 11
844.5793319903
 21
1215.0245157661
  0
LINE
  5
2B6
100
AcDbEntity
  8
ZEICHNUNGSBEMASSUNGEN
100
AcDbLine
 62
2
  6
CONTINUOUS
 10
1209.5793319903
 20
1207.5245157661
 11
1027.0793319903
 21
1207.5245157661
  0
LINE
  5
2B7
100
AcDbEntity
  8
ZEICHNUNGSBEMASSUNGEN
100
AcDbLine
 62
2
  6
CONTINUOUS
 10
844.5793319903
 20
1207.5245157661
 11
1027.0793319903
 21
1207.5245157661
  0
INSERT
  5
2B8
100
AcDbEntity
  8
ZEICHNUNGSBEMASSUNGEN
100
AcDbBlockReference
 62
2
  6
CONTINUOUS
  2
_FILLED
 10
1209.5793319903
 20
1207.5245157661
 41
17.5
 42
17.5
 43
17.5
  0
INSERT
  5
2B9
100
AcDbEntity
  8
ZEICHNUNGSBEMASSUNGEN
100
AcDbBlockReference
 62
2
  6
CONTINUOUS
  2
_FILLED
 10
844.5793319903
 20
1207.5245157661
 41
17.5
 42
17.5
 43
17.5
 50
180.0
  0
ENDBLK
  5
2BA
100
AcDbEntity
  8
0
  6
BYBLOCK
 62
0
100
AcDbBlockEnd
  0
BLOCK
  5
2BB
100
AcDbEntity
  8
ZEICHNUNGSBEMASSUNGEN
100
AcDbBlockBegin
 62
2
  6
CONTINUOUS
  2
*D1
 70
65
 10
0.0
 20
0.0
  3
*D1
  1

  0
MTEXT
  5
2BC
100
AcDbEntity
  8
ZEICHNUNGSBEMASSUNGEN
100
AcDbMText
 62
5
  6
CONTINUOUS
  7
STANDARD
 71
2
 72
1
 10
1024.3293319903
 20
1173.1495157661
 30
0.0
 11
1.0
 21
0.0
 31
0.0
 44
0.9
  1
150.5
 40
12.5
 41
41.9642857143
  0
LINE
  5
2BD
100
AcDbEntity
  8
ZEICHNUNGSBEMASSUNGEN
100
AcDbLine
 62
2
  6
CONTINUOUS
 10
1099.5793319903
 20
1054.0245157661
 11
1099.5793319903
 21
1165.0245157661
  0
LINE
  5
2BE
100
AcDbEntity
  8
ZEICHNUNGSBEMASSUNGEN
100
AcDbLine
 62
2
  6
CONTINUOUS
 10
949.0793319903
 20
926.9625395863
 11
949.0793319903
 21
1165.0245157661
  0
LINE
  5
2BF
100
AcDbEntity
  8
ZEICHNUNGSBEMASSUNGEN
100
AcDbLine
 62
2
  6
CONTINUOUS
 10
1099.5793319903
 20
1157.5245157661
 11
1024.3293319903
 21
1157.5245157661
  0
LINE
  5
2C0
100
AcDbEntity
  8
ZEICHNUNGSBEMASSUNGEN
100
AcDbLine
 62
2
  6
CONTINUOUS
 10
949.0793319903
 20
1157.5245157661
 11
1024.3293319903
 21
1157.5245157661
  0
INSERT
  5
2C1
100
AcDbEntity
  8
ZEICHNUNGSBEMASSUNGEN
100
AcDbBlockReference
 62
2
  6
CONTINUOUS
  2
_FILLED
 10
1099.5793319903
 20
1157.5245157661
 41
17.5
 42
17.5
 43
17.5
  0
INSERT
  5
2C2
100
AcDbEntity
  8
ZEICHNUNGSBEMASSUNGEN
100
AcDbBlockReference
 62
2
  6
CONTINUOUS
  2
_FILLED
 10
949.0793319903
 20
1157.5245157661
 41
17.5
 42
17.5
 43
17.5
 50
180.0
  0
ENDBLK
  5
2C3
100
AcDbEntity
  8
0
  6
BYBLOCK
 62
0
100
AcDbBlockEnd
  0
BLOCK
  5
2C4
100
AcDbEntity
  8
0
100
AcDbBlockBegin
 62
2
  6
CONTINUOUS
  2
*D2
 70
65
 10
0.0
 20
0.0
  3
*D2
  1

  0
MTEXT
  5
2C5
100
AcDbEntity
  8
0
100
AcDbMText
 62
5
  6
CONTINUOUS
  7
TEXTSTYLE_2
 71
2
 72
1
 10
292.1959567929
 20
1177.1495157661
 30
0.0
 11
1.0
 21
0.0
 31
0.0
 44
0.9
  1
{\Fgdt;o}\Ftxt;142
 40
12.5
 41
43.9732142857
  0
LINE
  5
2C6
100
AcDbEntity
  8
0
100
AcDbLine
 62
2
  6
CONTINUOUS
 10
221.1959567929
 20
1049.8748039895
 11
221.1959567929
 21
1169.0245157661
  0
LINE
  5
2C7
100
AcDbEntity
  8
0
100
AcDbLine
 62
2
  6
CONTINUOUS
 10
363.1959567929
 20
1049.8748039895
 11
363.1959567929
 21
1169.0245157661
  0
LINE
  5
2C8
100
AcDbEntity
  8
0
100
AcDbLine
 62
2
  6
CONTINUOUS
 10
221.1959567929
 20
1161.5245157661
 11
292.1959567929
 21
1161.5245157661
  0
LINE
  5
2C9
100
AcDbEntity
  8
0
100
AcDbLine
 62
2
  6
CONTINUOUS
 10
363.1959567929
 20
1161.5245157661
 11
292.1959567929
 21
1161.5245157661
  0
INSERT
  5
2CA
100
AcDbEntity
  8
0
100
AcDbBlockReference
 62
2
  6
CONTINUOUS
  2
_FILLED
 10
221.1959567929
 20
1161.5245157661
 41
17.5
 42
17.5
 43
17.5
 50
180.0
  0
INSERT
  5
2CB
100
AcDbEntity
  8
0
100
AcDbBlockReference
 62
2
  6
CONTINUOUS
  2
_FILLED
 10
363.1959567929
 20
1161.5245157661
 41
17.5
 42
17.5
 43
17.5
  0
ENDBLK
  5
2CC
100
AcDbEntity
  8
0
  6
BYBLOCK
 62
0
100
AcDbBlockEnd
  0
BLOCK
  5
2CD
100
AcDbEntity
  8
0
100
AcDbBlockBegin
 62
2
  6
CONTINUOUS
  2
*D3
 70
65
 10
0.0
 20
0.0
  3
*D3
  1

  0
MTEXT
  5
2CE
100
AcDbEntity
  8
0
100
AcDbMText
 62
5
  6
CONTINUOUS
  7
TEXTSTYLE_2
 71
1
 72
1
 10
398.2001226527
 20
903.2372687106
 30
0.0
 11
0.7094179476
 21
-0.704788036
 31
0.0
 44
0.9
  1
{\Fgdt;n}\Ftxt;185
 40
12.5
 41
42.5595238095
  0
LINE
  5
2CF
100
AcDbEntity
  8
0
100
AcDbLine
 62
2
  6
CONTINUOUS
 10
357.8171169419
 20
921.3316224364
 11
292.1959567929
 21
986.5245157661
  0
LINE
  5
2D0
100
AcDbEntity
  8
0
100
AcDbLine
 62
2
  6
CONTINUOUS
 10
292.1959567929
 20
986.5245157661
 11
417.3802996202
 21
862.1571700813
  0
LINE
  5
2D1
100
AcDbEntity
  8
0
100
AcDbLine
 62
2
  6
CONTINUOUS
 10
226.5747966439
 20
1051.7174090958
 11
292.1959567929
 21
986.5245157661
  0
INSERT
  5
2D2
100
AcDbEntity
  8
0
100
AcDbBlockReference
 62
2
  6
CONTINUOUS
  2
_FILLED
 10
357.8171169419
 20
921.3316224364
 41
17.5
 42
17.5
 43
17.5
 50
315.1875776565
  0
INSERT
  5
2D3
100
AcDbEntity
  8
0
100
AcDbBlockReference
 62
2
  6
CONTINUOUS
  2
_FILLED
 10
226.5747966439
 20
1051.7174090958
 41
17.5
 42
17.5
 43
17.5
 50
135.1875776565
  0
ENDBLK
  5
2D4
100
AcDbEntity
  8
0
  6
BYBLOCK
 62
0
100
AcDbBlockEnd
  0
BLOCK
  5
2D5
100
AcDbEntity
  8
0
100
AcDbBlockBegin
 62
2
  6
CONTINUOUS
  2
*D4
 70
65
 10
0.0
 20
0.0
  3
*D4
  1

  0
MTEXT
  5
2D6
100
AcDbEntity
  8
0
100
AcDbMText
 62
5
  6
CONTINUOUS
  7
STANDARD
 71
3
 72
1
 10
1076.7004363805
 20
1123.1495157661
 30
0.0
 11
1.0
 21
0.0
 31
0.0
 44
0.9
  1
28
 40
12.5
 41
19.6428571429
  0
LINE
  5
2D7
100
AcDbEntity
  8
0
100
AcDbLine
 62
2
  6
CONTINUOUS
 10
1127.5793319903
 20
1054.0245157661
 11
1127.5793319903
 21
1115.0245157661
  0
LINE
  5
2D8
100
AcDbEntity
  8
0
100
AcDbLine
 62
2
  6
CONTINUOUS
 10
1099.5793319903
 20
1054.0245157661
 11
1099.5793319903
 21
1115.0245157661
  0
LINE
  5
2D9
100
AcDbEntity
  8
0
100
AcDbLine
 62
2
  6
CONTINUOUS
 10
1127.5793319903
 20
1107.5245157661
 11
1157.5793319903
 21
1107.5245157661
  0
LINE
  5
2DA
100
AcDbEntity
  8
0
100
AcDbLine
 62
2
  6
CONTINUOUS
 10
1157.5793319903
 20
1107.5245157661
 11
1113.5793319903
 21
1107.5245157661
  0
LINE
  5
2DB
100
AcDbEntity
  8
0
100
AcDbLine
 62
2
  6
CONTINUOUS
 10
1099.5793319903
 20
1107.5245157661
 11
1057.0575792377
 21
1107.5245157661
  0
LINE
  5
2DC
100
AcDbEntity
  8
0
100
AcDbLine
 62
2
  6
CONTINUOUS
 10
1057.0575792377
 20
1107.5245157661
 11
1113.5793319903
 21
1107.5245157661
  0
INSERT
  5
2DD
100
AcDbEntity
  8
0
100
AcDbBlockReference
 62
2
  6
CONTINUOUS
  2
_FILLED
 10
1127.5793319903
 20
1107.5245157661
 41
17.5
 42
17.5
 43
17.5
 50
180.0
  0
INSERT
  5
2DE
100
AcDbEntity
  8
0
100
AcDbBlockReference
 62
2
  6
CONTINUOUS
  2
_FILLED
 10
1099.5793319903
 20
1107.5245157661
 41
17.5
 42
17.5
 43
17.5
  0
ENDBLK
  5
2DF
100
AcDbEntity
  8
0
  6
BYBLOCK
 62
0
100
AcDbBlockEnd
  0
BLOCK
  5
2E0
100
AcDbEntity
  8
0
100
AcDbBlockBegin
 62
2
  6
CONTINUOUS
  2
*D5
 70
65
 10
0.0
 20
0.0
  3
*D5
  1

  0
MTEXT
  5
2E1
100
AcDbEntity
  8
0
100
AcDbMText
 62
5
  6
CONTINUOUS
  7
TEXTSTYLE_2
 71
2
 72
1
 10
1368.9543319903
 20
982.2027196669
 30
0.0
 11
0.0
 21
1.0
 31
0.0
 44
0.9
  1
{\Fgdt;n}\Ftxt;130
 40
12.5
 41
42.5595238095
  0
LINE
  5
2E2
100
AcDbEntity
  8
0
100
AcDbLine
 62
2
  6
CONTINUOUS
 10
1102.0793319903
 20
921.5245157661
 11
1255.1866304878
 21
921.5245157661
  0
LINE
  5
2E3
100
AcDbEntity
  8
0
100
AcDbLine
 62
2
  6
CONTINUOUS
 10
1383.0777368293
 20
921.5245157661
 11
1392.0793319903
 21
921.5245157661
  0
LINE
  5
2E4
100
AcDbEntity
  8
0
100
AcDbLine
 62
2
  6
CONTINUOUS
 10
1102.0793319903
 20
1051.5245157661
 11
1392.0793319903
 21
1051.5245157661
  0
LINE
  5
2E5
100
AcDbEntity
  8
0
100
AcDbLine
 62
2
  6
CONTINUOUS
 10
1384.5793319903
 20
921.5245157661
 11
1384.5793319903
 21
986.5245157661
  0
LINE
  5
2E6
100
AcDbEntity
  8
0
100
AcDbLine
 62
2
  6
CONTINUOUS
 10
1384.5793319903
 20
1051.5245157661
 11
1384.5793319903
 21
986.5245157661
  0
INSERT
  5
2E7
100
AcDbEntity
  8
0
100
AcDbBlockReference
 62
2
  6
CONTINUOUS
  2
_FILLED
 10
1384.5793319903
 20
921.5245157661
 41
17.5
 42
17.5
 43
17.5
 50
270.0
  0
INSERT
  5
2E8
100
AcDbEntity
  8
0
100
AcDbBlockReference
 62
2
  6
CONTINUOUS
  2
_FILLED
 10
1384.5793319903
 20
1051.5245157661
 41
17.5
 42
17.5
 43
17.5
 50
90.0
  0
ENDBLK
  5
2E9
100
AcDbEntity
  8
0
  6
BYBLOCK
 62
0
100
AcDbBlockEnd
  0
BLOCK
  5
2EA
100
AcDbEntity
  8
0
100
AcDbBlockBegin
 62
2
  6
CONTINUOUS
  2
*D6
 70
65
 10
0.0
 20
0.0
  3
*D6
  1

  0
TEXT
  5
2EB
100
AcDbEntity
  8
0
100
AcDbText
 62
5
  6
CONTINUOUS
 10
1328.294251097
 20
962.2039878633
  7
TEXTSTYLE_2
 40
12.5
  1
n
 50
89.906592694
 41
1.0
 72
1
 11
1328.3078366329
 21
970.5373101226
100
AcDbText
  0
TEXT
  5
2EC
100
AcDbEntity
  8
0
100
AcDbText
 62
5
  6
CONTINUOUS
 10
1328.3214221689
 20
978.8706323819
  7
STANDARD
 40
12.5
  1
70
 50
89.906592694
 41
0.7857142857
 72
1
 11
1328.3374336934
 21
988.6920479018
100
AcDbText
  0
TEXT
  5
2ED
100
AcDbEntity
  8
0
100
AcDbText
 62
5
  6
CONTINUOUS
 10
1320.8534551845
 20
998.5256904041
  7
TEXTSTYLE_3
 40
7.5
  1
 0
 50
89.906592694
 41
0.7857142857
 72
1
 11
1320.8630620992
 21
1004.418539716
100
AcDbText
  0
TEXT
  5
2EE
100
AcDbEntity
  8
0
100
AcDbText
 62
5
  6
CONTINUOUS
 10
1330.8534418957
 20
998.5093877609
  7
TEXTSTYLE_3
 40
7.5
  1
-3
 50
89.906592694
 41
0.7142857143
 72
1
 11
1330.8621754545
 21
1003.8665234991
100
AcDbText
  0
LINE
  5
2EF
100
AcDbEntity
  8
0
100
AcDbLine
 62
2
  6
CONTINUOUS
 10
1132.0793319903
 20
1021.5172260778
 11
1342.1404074594
 21
1021.1747705479
  0
LINE
  5
2F0
100
AcDbEntity
  8
0
100
AcDbLine
 62
2
  6
CONTINUOUS
 10
1132.0793319903
 20
951.517133056
 11
1261.2581479011
 21
951.3065371626
  0
LINE
  5
2F1
100
AcDbEntity
  8
0
100
AcDbLine
 62
2
  6
CONTINUOUS
 10
1334.640417426
 20
1021.1869975303
 11
1334.5833581751
 21
986.1870440411
  0
LINE
  5
2F2
100
AcDbEntity
  8
0
100
AcDbLine
 62
2
  6
CONTINUOUS
 10
1334.5262989241
 20
951.187090552
 11
1334.5833581751
 21
986.1870440411
  0
INSERT
  5
2F3
100
AcDbEntity
  8
0
100
AcDbBlockReference
 62
2
  6
CONTINUOUS
  2
_FILLED
 10
1334.640417426
 20
1021.1869975303
 41
17.5
 42
17.5
 43
17.5
 50
89.906592694
  0
INSERT
  5
2F4
100
AcDbEntity
  8
0
100
AcDbBlockReference
 62
2
  6
CONTINUOUS
  2
_FILLED
 10
1334.5262989241
 20
951.187090552
 41
17.5
 42
17.5
 43
17.5
 50
269.906592694
  0
ENDBLK
  5
2F5
100
AcDbEntity
  8
0
  6
BYBLOCK
 62
0
100
AcDbBlockEnd
  0
BLOCK
  5
2F6
100
AcDbEntity
  8
0
100
AcDbBlockBegin
 62
2
  6
CONTINUOUS
  2
*D7
 70
65
 10
0.0
 20
0.0
  3
*D7
  1

  0
MTEXT
  5
2F7
100
AcDbEntity
  8
0
100
AcDbMText
 62
5
  6
CONTINUOUS
  7
STANDARD
 71
2
 72
1
 10
1169.5793319903
 20
1148.1495157661
 30
0.0
 11
1.0
 21
0.0
 31
0.0
 44
0.9
  1
80
 40
12.5
 41
19.6428571429
  0
LINE
  5
2F8
100
AcDbEntity
  8
0
100
AcDbLine
 62
2
  6
CONTINUOUS
 10
1129.5793319903
 20
1024.0245157661
 11
1129.5793319903
 21
1140.0245157661
  0
LINE
  5
2F9
100
AcDbEntity
  8
0
100
AcDbLine
 62
2
  6
CONTINUOUS
 10
1209.5793319903
 20
1017.0245157661
 11
1209.5793319903
 21
1140.0245157661
  0
LINE
  5
2FA
100
AcDbEntity
  8
0
100
AcDbLine
 62
2
  6
CONTINUOUS
 10
1129.5793319903
 20
1132.5245157661
 11
1169.5793319903
 21
1132.5245157661
  0
LINE
  5
2FB
100
AcDbEntity
  8
0
100
AcDbLine
 62
2
  6
CONTINUOUS
 10
1209.5793319903
 20
1132.5245157661
 11
1169.5793319903
 21
1132.5245157661
  0
INSERT
  5
2FC
100
AcDbEntity
  8
0
100
AcDbBlockReference
 62
2
  6
CONTINUOUS
  2
_FILLED
 10
1129.5793319903
 20
1132.5245157661
 41
17.5
 42
17.5
 43
17.5
 50
180.0
  0
INSERT
  5
2FD
100
AcDbEntity
  8
0
100
AcDbBlockReference
 62
2
  6
CONTINUOUS
  2
_FILLED
 10
1209.5793319903
 20
1132.5245157661
 41
17.5
 42
17.5
 43
17.5
  0
ENDBLK
  5
2FE
100
AcDbEntity
  8
0
  6
BYBLOCK
 62
0
100
AcDbBlockEnd
  0
BLOCK
  5
2FF
100
AcDbEntity
  8
0
100
AcDbBlockBegin
 62
2
  6
CONTINUOUS
  2
*D8
 70
65
 10
0.0
 20
0.0
  3
*D8
  1

  0
MTEXT
  5
300
100
AcDbEntity
  8
0
100
AcDbMText
 62
5
  6
CONTINUOUS
  7
TEXTSTYLE_2
 71
3
 72
1
 10
1268.9543319903
 20
911.5245157661
 30
0.0
 11
0.0
 21
1.0
 31
0.0
 44
0.9
  1
{\Fgdt;n}\Ftxt;40
 40
12.5
 41
36.3095238095
  0
LINE
  5
301
100
AcDbEntity
  8
0
100
AcDbLine
 62
2
  6
CONTINUOUS
 10
1212.0793319903
 20
966.5245157661
 11
1292.0793319903
 21
966.5245157661
  0
LINE
  5
302
100
AcDbEntity
  8
0
100
AcDbLine
 62
2
  6
CONTINUOUS
 10
1212.0793319903
 20
1006.5245157661
 11
1292.0793319903
 21
1006.5245157661
  0
LINE
  5
303
100
AcDbEntity
  8
0
100
AcDbLine
 62
2
  6
CONTINUOUS
 10
1284.5793319903
 20
966.5245157661
 11
1284.5793319903
 21
986.5245157661
  0
LINE
  5
304
100
AcDbEntity
  8
0
100
AcDbLine
 62
2
  6
CONTINUOUS
 10
1284.5793319903
 20
986.5245157661
 11
1284.5793319903
 21
875.2149919565
  0
LINE
  5
305
100
AcDbEntity
  8
0
100
AcDbLine
 62
2
  6
CONTINUOUS
 10
1284.5793319903
 20
1006.5245157661
 11
1284.5793319903
 21
986.5245157661
  0
INSERT
  5
306
100
AcDbEntity
  8
0
100
AcDbBlockReference
 62
2
  6
CONTINUOUS
  2
_FILLED
 10
1284.5793319903
 20
966.5245157661
 41
17.5
 42
17.5
 43
17.5
 50
270.0
  0
INSERT
  5
307
100
AcDbEntity
  8
0
100
AcDbBlockReference
 62
2
  6
CONTINUOUS
  2
_FILLED
 10
1284.5793319903
 20
1006.5245157661
 41
17.5
 42
17.5
 43
17.5
 50
90.0
  0
ENDBLK
  5
308
100
AcDbEntity
  8
0
  6
BYBLOCK
 62
0
100
AcDbBlockEnd
  0
BLOCK
  5
309
100
AcDbEntity
  8
0
100
AcDbBlockBegin
 62
2
  6
CONTINUOUS
  2
*D9
 70
65
 10
0.0
 20
0.0
  3
*D9
  1

  0
MTEXT
  5
30A
100
AcDbEntity
  8
0
100
AcDbMText
 62
5
  6
CONTINUOUS
  7
STANDARD
 71
1
 72
1
 10
451.4644108317
 20
1079.9400512541
 30
0.0
 11
0.7071067812
 21
-0.7071067812
 31
0.0
 44
0.9
  1
11
 40
12.5
 41
14.2857142857
  0
LINE
  5
30B
100
AcDbEntity
  8
0
100
AcDbLine
 62
2
  6
CONTINUOUS
 10
358.2230742653
 20
1044.7734586454
 11
416.6817962557
 21
1103.2321806358
  0
LINE
  5
30C
100
AcDbEntity
  8
0
100
AcDbLine
 62
2
  6
CONTINUOUS
 10
350.693790323
 20
1052.8005238893
 11
408.9036216626
 21
1111.0103552288
  0
LINE
  5
30D
100
AcDbEntity
  8
0
100
AcDbLine
 62
2
  6
CONTINUOUS
 10
411.3784953968
 20
1097.9288797769
 11
450.5173928211
 21
1058.7899823525
  0
LINE
  5
30E
100
AcDbEntity
  8
0
100
AcDbLine
 62
2
  6
CONTINUOUS
 10
450.5173928211
 20
1058.7899823525
 11
407.4894081002
 21
1101.8179670734
  0
LINE
  5
30F
100
AcDbEntity
  8
0
100
AcDbLine
 62
2
  6
CONTINUOUS
 10
403.6003208037
 20
1105.7070543699
 11
382.3871173681
 21
1126.9202578055
  0
LINE
  5
310
100
AcDbEntity
  8
0
100
AcDbLine
 62
2
  6
CONTINUOUS
 10
382.3871173681
 20
1126.9202578055
 11
407.4894081002
 21
1101.8179670734
  0
INSERT
  5
311
100
AcDbEntity
  8
0
100
AcDbBlockReference
 62
2
  6
CONTINUOUS
  2
_FILLED
 10
411.3784953968
 20
1097.9288797769
 41
17.5
 42
17.5
 43
17.5
 50
135.0
  0
INSERT
  5
312
100
AcDbEntity
  8
0
100
AcDbBlockReference
 62
2
  6
CONTINUOUS
  2
_FILLED
 10
403.6003208037
 20
1105.7070543699
 41
17.5
 42
17.5
 43
17.5
 50
315.0
  0
ENDBLK
  5
313
100
AcDbEntity
  8
0
  6
BYBLOCK
 62
0
100
AcDbBlockEnd
  0
BLOCK
  5
314
100
AcDbEntity
  8
ZEICHNUNGSBEMASSUNGEN
100
AcDbBlockBegin
 62
2
  6
CONTINUOUS
  2
*D10
 70
65
 10
0.0
 20
0.0
  3
*D10
  1

  0
MTEXT
  5
315
100
AcDbEntity
  8
ZEICHNUNGSBEMASSUNGEN
100
AcDbMText
 62
5
  6
CONTINUOUS
  7
STANDARD
 71
2
 72
1
 10
1154.5793319903
 20
1173.1495157661
 30
0.0
 11
1.0
 21
0.0
 31
0.0
 44
0.9
  1
110
 40
12.5
 41
24.1071428571
  0
LINE
  5
316
100
AcDbEntity
  8
ZEICHNUNGSBEMASSUNGEN
100
AcDbLine
 62
2
  6
CONTINUOUS
 10
1209.5793319903
 20
1017.0245157661
 11
1209.5793319903
 21
1165.0245157661
  0
LINE
  5
317
100
AcDbEntity
  8
ZEICHNUNGSBEMASSUNGEN
100
AcDbLine
 62
2
  6
CONTINUOUS
 10
1099.5793319903
 20
1054.0245157661
 11
1099.5793319903
 21
1165.0245157661
  0
LINE
  5
318
100
AcDbEntity
  8
ZEICHNUNGSBEMASSUNGEN
100
AcDbLine
 62
2
  6
CONTINUOUS
 10
1209.5793319903
 20
1157.5245157661
 11
1154.5793319903
 21
1157.5245157661
  0
LINE
  5
319
100
AcDbEntity
  8
ZEICHNUNGSBEMASSUNGEN
100
AcDbLine
 62
2
  6
CONTINUOUS
 10
1099.5793319903
 20
1157.5245157661
 11
1154.5793319903
 21
1157.5245157661
  0
INSERT
  5
31A
100
AcDbEntity
  8
ZEICHNUNGSBEMASSUNGEN
100
AcDbBlockReference
 62
2
  6
CONTINUOUS
  2
_FILLED
 10
1209.5793319903
 20
1157.5245157661
 41
17.5
 42
17.5
 43
17.5
  0
INSERT
  5
31B
100
AcDbEntity
  8
ZEICHNUNGSBEMASSUNGEN
100
AcDbBlockReference
 62
2
  6
CONTINUOUS
  2
_FILLED
 10
1099.5793319903
 20
1157.5245157661
 41
17.5
 42
17.5
 43
17.5
 50
180.0
  0
ENDBLK
  5
31C
100
AcDbEntity
  8
0
  6
BYBLOCK
 62
0
100
AcDbBlockEnd
  0
BLOCK
  5
31D
100
AcDbEntity
  8
ZEICHNUNGSBEMASSUNGEN
100
AcDbBlockBegin
 62
2
  6
CONTINUOUS
  2
*D11
 70
65
 10
0.0
 20
0.0
  3
*D11
  1

  0
MTEXT
  5
31E
100
AcDbEntity
  8
ZEICHNUNGSBEMASSUNGEN
100
AcDbMText
 62
5
  6
CONTINUOUS
  7
STANDARD
 71
2
 72
1
 10
1137.1189375737
 20
917.5049793599
 30
0.0
 11
0.223374835
 21
0.9747326213
 31
0.0
 44
0.9
  1
5\Fgdt;{\Fgdt;~}
 40
12.5
 41
17.2619047619
  0
LINE
  5
31F
100
AcDbEntity
  8
ZEICHNUNGSBEMASSUNGEN
100
AcDbLine
 62
2
  6
CONTINUOUS
 10
1127.0793314442
 20
921.5245157661
 11
1131.6280607923
 21
921.5245157661
  0
LINE
  5
320
100
AcDbEntity
  8
ZEICHNUNGSBEMASSUNGEN
100
AcDbLine
 62
2
  6
CONTINUOUS
 10
1157.2761200169
 20
921.5245157661
 11
1176.3236134482
 21
921.5245157661
  0
LINE
  5
321
100
AcDbEntity
  8
ZEICHNUNGSBEMASSUNGEN
100
AcDbLine
 62
2
  6
CONTINUOUS
 10
1158.0473855749
 20
924.8900591545
 11
1176.1076833612
 21
926.4701298351
  0
ARC
  5
322
100
AcDbEntity
  8
ZEICHNUNGSBEMASSUNGEN
100
AcDbCircle
 62
2
  6
CONTINUOUS
 10
1119.5790331449
 20
921.5245157661
 40
49.2445803033
100
AcDbArc
 50
347.0926689977
 51
360.0
  0
ARC
  5
323
100
AcDbEntity
  8
ZEICHNUNGSBEMASSUNGEN
100
AcDbCircle
 62
2
  6
CONTINUOUS
 10
1119.5790331449
 20
921.5245157661
 40
49.2445803033
100
AcDbArc
 50
4.999997999
 51
39.904821531
  0
ARC
  5
324
100
AcDbEntity
  8
ZEICHNUNGSBEMASSUNGEN
100
AcDbCircle
 62
2
  6
CONTINUOUS
 10
1119.5790331449
 20
921.5245157661
 40
49.2445803033
100
AcDbArc
 50
0.0
 51
4.999997999
  0
SOLID
  5
325
100
AcDbEntity
  8
ZEICHNUNGSBEMASSUNGEN
100
AcDbTrace
 62
2
  6
CONTINUOUS
 10
1167.8835294829
 20
903.9134000039
 11
1168.8236134482
 21
921.5245157661
 12
1163.5774112634
 22
904.6866857727
 13
1163.5774112634
 23
904.6866857727
  0
SOLID
  5
326
100
AcDbEntity
  8
ZEICHNUNGSBEMASSUNGEN
100
AcDbTrace
 62
2
  6
CONTINUOUS
 10
1161.9424712916
 20
942.132982578
 11
1168.6362231027
 21
925.8164620254
 12
1166.1648071757
 22
943.2786285452
 13
1166.1648071757
 23
943.2786285452
  0
ENDBLK
  5
327
100
AcDbEntity
  8
0
  6
BYBLOCK
 62
0
100
AcDbBlockEnd
  0
BLOCK
  5
328
100
AcDbEntity
  8
ZEICHNUNGSBEMASSUNGEN
100
AcDbBlockBegin
 62
2
  6
CONTINUOUS
  2
*D12
 70
65
 10
0.0
 20
0.0
  3
*D12
  1

  0
MTEXT
  5
329
100
AcDbEntity
  8
ZEICHNUNGSBEMASSUNGEN
100
AcDbMText
 62
5
  6
CONTINUOUS
  7
STANDARD
 71
3
 72
1
 10
1061.744395734
 20
856.1495157661
 30
0.0
 11
1.0
 21
0.0
 31
0.0
 44
0.9
  1
12
 40
12.5
 41
16.9642857143
  0
LINE
  5
32A
100
AcDbEntity
  8
ZEICHNUNGSBEMASSUNGEN
100
AcDbLine
 62
2
  6
CONTINUOUS
 10
1087.5793319903
 20
910.5245157661
 11
1087.5793319903
 21
833.0245157661
  0
LINE
  5
32B
100
AcDbEntity
  8
ZEICHNUNGSBEMASSUNGEN
100
AcDbLine
 62
2
  6
CONTINUOUS
 10
1099.5793319903
 20
910.5245157661
 11
1099.5793319903
 21
833.0245157661
  0
LINE
  5
32C
100
AcDbEntity
  8
ZEICHNUNGSBEMASSUNGEN
100
AcDbLine
 62
2
  6
CONTINUOUS
 10
1087.5793319903
 20
840.5245157661
 11
1044.7801100198
 21
840.5245157661
  0
LINE
  5
32D
100
AcDbEntity
  8
ZEICHNUNGSBEMASSUNGEN
100
AcDbLine
 62
2
  6
CONTINUOUS
 10
1044.7801100198
 20
840.5245157661
 11
1093.5793319903
 21
840.5245157661
  0
LINE
  5
32E
100
AcDbEntity
  8
ZEICHNUNGSBEMASSUNGEN
100
AcDbLine
 62
2
  6
CONTINUOUS
 10
1099.5793319903
 20
840.5245157661
 11
1129.5793319903
 21
840.5245157661
  0
LINE
  5
32F
100
AcDbEntity
  8
ZEICHNUNGSBEMASSUNGEN
100
AcDbLine
 62
2
  6
CONTINUOUS
 10
1129.5793319903
 20
840.5245157661
 11
1093.5793319903
 21
840.5245157661
  0
INSERT
  5
330
100
AcDbEntity
  8
ZEICHNUNGSBEMASSUNGEN
100
AcDbBlockReference
 62
2
  6
CONTINUOUS
  2
_FILLED
 10
1087.5793319903
 20
840.5245157661
 41
17.5
 42
17.5
 43
17.5
  0
INSERT
  5
331
100
AcDbEntity
  8
ZEICHNUNGSBEMASSUNGEN
100
AcDbBlockReference
 62
2
  6
CONTINUOUS
  2
_FILLED
 10
1099.5793319903
 20
840.5245157661
 41
17.5
 42
17.5
 43
17.5
 50
180.0
  0
ENDBLK
  5
332
100
AcDbEntity
  8
0
  6
BYBLOCK
 62
0
100
AcDbBlockEnd
  0
BLOCK
  5
333
100
AcDbEntity
  8
0
100
AcDbBlockBegin
 62
2
  6
CONTINUOUS
  2
*D13
 70
65
 10
0.0
 20
0.0
  3
*D13
  1

  0
TEXT
  5
334
100
AcDbEntity
  8
0
100
AcDbText
 62
5
  6
CONTINUOUS
 10
419.1005147584
 20
972.7644200272
  7
STANDARD
 40
12.5
  1
 
 50
-8.9948047494
 41
0.7857142857
 72
0
100
AcDbText
  0
TEXT
  5
335
100
AcDbEntity
  8
0
100
AcDbText
 62
5
  6
CONTINUOUS
 10
428.8011645193
 20
971.2288896953
  7
TEXTSTYLE_2
 40
12.5
  1
n
 50
-8.9948047494
 41
1.0
 72
0
100
AcDbText
  0
TEXT
  5
336
100
AcDbEntity
  8
0
100
AcDbText
 62
5
  6
CONTINUOUS
 10
445.2628732045
 20
968.6231412533
  7
STANDARD
 40
12.5
  1
165
 50
-8.9948047494
 41
0.6904761905
 72
0
100
AcDbText
  0
TEXT
  5
337
100
AcDbEntity
  8
0
100
AcDbText
 62
5
  6
CONTINUOUS
 10
472.0099002821
 20
971.9826938321
  7
TEXTSTYLE_3
 40
7.5
  1
+0.3
 50
-8.9948047494
 41
0.6964285714
 72
0
100
AcDbText
  0
TEXT
  5
338
100
AcDbEntity
  8
0
100
AcDbText
 62
5
  6
CONTINUOUS
 10
470.4464512169
 20
962.105668621
  7
TEXTSTYLE_3
 40
7.5
  1
-0.3
 50
-8.9948047494
 41
0.6964285714
 72
0
100
AcDbText
  0
LINE
  5
339
100
AcDbEntity
  8
0
100
AcDbLine
 62
2
  6
CONTINUOUS
 10
373.6814147844
 20
973.6260609782
 11
292.1959567929
 21
986.5245157661
  0
LINE
  5
33A
100
AcDbEntity
  8
0
100
AcDbLine
 62
2
  6
CONTINUOUS
 10
292.1959567929
 20
986.5245157661
 11
490.4960854906
 21
955.1352923699
  0
LINE
  5
33B
100
AcDbEntity
  8
0
100
AcDbLine
 62
2
  6
CONTINUOUS
 10
210.7104988014
 20
999.4229705539
 11
292.1959567929
 21
986.5245157661
  0
INSERT
  5
33C
100
AcDbEntity
  8
0
100
AcDbBlockReference
 62
2
  6
CONTINUOUS
  2
_FILLED
 10
373.6814147844
 20
973.6260609782
 41
17.5
 42
17.5
 43
17.5
 50
351.0051952506
  0
INSERT
  5
33D
100
AcDbEntity
  8
0
100
AcDbBlockReference
 62
2
  6
CONTINUOUS
  2
_FILLED
 10
210.7104988014
 20
999.4229705539
 41
17.5
 42
17.5
 43
17.5
 50
171.0051952506
  0
ENDBLK
  5
33E
100
AcDbEntity
  8
0
  6
BYBLOCK
 62
0
100
AcDbBlockEnd
  0
BLOCK
  5
33F
100
AcDbEntity
  8
ZEICHNUNGSBEMASSUNGEN
100
AcDbBlockBegin
 62
2
  6
CONTINUOUS
  2
*D14
 70
65
 10
0.0
 20
0.0
  3
*D14
  1

  0
MTEXT
  5
340
100
AcDbEntity
  8
ZEICHNUNGSBEMASSUNGEN
100
AcDbMText
 62
5
  6
CONTINUOUS
  7
STANDARD
 71
3
 72
1
 10
1071.031232991
 20
1098.1495157661
 30
0.0
 11
1.0
 21
0.0
 31
0.0
 44
0.9
  1
20
 40
12.5
 41
19.6428571429
  0
LINE
  5
341
100
AcDbEntity
  8
ZEICHNUNGSBEMASSUNGEN
100
AcDbLine
 62
2
  6
CONTINUOUS
 10
1099.5793319903
 20
1054.0245157661
 11
1099.5793319903
 21
1090.0245157661
  0
LINE
  5
342
100
AcDbEntity
  8
ZEICHNUNGSBEMASSUNGEN
100
AcDbLine
 62
2
  6
CONTINUOUS
 10
1119.5792722349
 20
1054.0245157661
 11
1119.5792722349
 21
1090.0245157661
  0
LINE
  5
343
100
AcDbEntity
  8
ZEICHNUNGSBEMASSUNGEN
100
AcDbLine
 62
2
  6
CONTINUOUS
 10
1099.5793319903
 20
1082.5245157661
 11
1051.3883758482
 21
1082.5245157661
  0
LINE
  5
344
100
AcDbEntity
  8
ZEICHNUNGSBEMASSUNGEN
100
AcDbLine
 62
2
  6
CONTINUOUS
 10
1051.3883758482
 20
1082.5245157661
 11
1109.5793021126
 21
1082.5245157661
  0
LINE
  5
345
100
AcDbEntity
  8
ZEICHNUNGSBEMASSUNGEN
100
AcDbLine
 62
2
  6
CONTINUOUS
 10
1119.5792722349
 20
1082.5245157661
 11
1149.5792722349
 21
1082.5245157661
  0
LINE
  5
346
100
AcDbEntity
  8
ZEICHNUNGSBEMASSUNGEN
100
AcDbLine
 62
2
  6
CONTINUOUS
 10
1149.5792722349
 20
1082.5245157661
 11
1109.5793021126
 21
1082.5245157661
  0
INSERT
  5
347
100
AcDbEntity
  8
ZEICHNUNGSBEMASSUNGEN
100
AcDbBlockReference
 62
2
  6
CONTINUOUS
  2
_FILLED
 10
1099.5793319903
 20
1082.5245157661
 41
17.5
 42
17.5
 43
17.5
  0
INSERT
  5
348
100
AcDbEntity
  8
ZEICHNUNGSBEMASSUNGEN
100
AcDbBlockReference
 62
2
  6
CONTINUOUS
  2
_FILLED
 10
1119.5792722349
 20
1082.5245157661
 41
17.5
 42
17.5
 43
17.5
 50
180.0
  0
ENDBLK
  5
349
100
AcDbEntity
  8
0
  6
BYBLOCK
 62
0
100
AcDbBlockEnd
  0
BLOCK
  5
34A
100
AcDbEntity
  8
0
100
AcDbBlockBegin
 62
2
  6
CONTINUOUS
  2
*D15
 70
65
 10
0.0
 20
0.0
  3
*D15
  1

  0
MTEXT
  5
34B
100
AcDbEntity
  8
0
100
AcDbMText
 62
5
  6
CONTINUOUS
  7
STANDARD
 71
2
 72
1
 10
876.0793319903
 20
1112.1495157661
 30
0.0
 11
1.0
 21
0.0
 31
0.0
 44
0.9
  1
63
 40
12.5
 41
18.75
  0
LINE
  5
34C
100
AcDbEntity
  8
0
100
AcDbLine
 62
2
  6
CONTINUOUS
 10
907.5793319903
 20
1079.0245157661
 11
907.5793319903
 21
1104.0245157661
  0
LINE
  5
34D
100
AcDbEntity
  8
0
100
AcDbLine
 62
2
  6
CONTINUOUS
 10
844.5793319903
 20
1079.0245157661
 11
844.5793319903
 21
1104.0245157661
  0
LINE
  5
34E
100
AcDbEntity
  8
0
100
AcDbLine
 62
2
  6
CONTINUOUS
 10
907.5793319903
 20
1096.5245157661
 11
876.0793319903
 21
1096.5245157661
  0
LINE
  5
34F
100
AcDbEntity
  8
0
100
AcDbLine
 62
2
  6
CONTINUOUS
 10
844.5793319903
 20
1096.5245157661
 11
876.0793319903
 21
1096.5245157661
  0
INSERT
  5
350
100
AcDbEntity
  8
0
100
AcDbBlockReference
 62
2
  6
CONTINUOUS
  2
_FILLED
 10
907.5793319903
 20
1096.5245157661
 41
17.5
 42
17.5
 43
17.5
  0
INSERT
  5
351
100
AcDbEntity
  8
0
100
AcDbBlockReference
 62
2
  6
CONTINUOUS
  2
_FILLED
 10
844.5793319903
 20
1096.5245157661
 41
17.5
 42
17.5
 43
17.5
 50
180.0
  0
ENDBLK
  5
352
100
AcDbEntity
  8
0
  6
BYBLOCK
 62
0
100
AcDbBlockEnd
  0
BLOCK
  5
353
100
AcDbEntity
  8
0
100
AcDbBlockBegin
 62
2
  6
CONTINUOUS
  2
*D16
 70
65
 10
0.0
 20
0.0
  3
*D16
  1

  0
MTEXT
  5
354
100
AcDbEntity
  8
0
100
AcDbMText
 62
5
  6
CONTINUOUS
  7
TEXTSTYLE_2
 71
2
 72
1
 10
1799.5159869559
 20
1152.1495157661
 30
0.0
 11
1.0
 21
0.0
 31
0.0
 44
0.9
  1
{\Fgdt;o}\Ftxt;180
 40
12.5
 41
43.9732142857
  0
LINE
  5
355
100
AcDbEntity
  8
0
100
AcDbLine
 62
2
  6
CONTINUOUS
 10
1709.5159869559
 20
1069.7656650438
 11
1709.5159869559
 21
1144.0245157661
  0
LINE
  5
356
100
AcDbEntity
  8
0
100
AcDbLine
 62
2
  6
CONTINUOUS
 10
1889.5159869559
 20
1069.744279183
 11
1889.5159869559
 21
1144.0245157661
  0
LINE
  5
357
100
AcDbEntity
  8
0
100
AcDbLine
 62
2
  6
CONTINUOUS
 10
1709.5159869559
 20
1136.5245157661
 11
1799.5159869559
 21
1136.5245157661
  0
LINE
  5
358
100
AcDbEntity
  8
0
100
AcDbLine
 62
2
  6
CONTINUOUS
 10
1889.5159869559
 20
1136.5245157661
 11
1799.5159869559
 21
1136.5245157661
  0
INSERT
  5
359
100
AcDbEntity
  8
0
100
AcDbBlockReference
 62
2
  6
CONTINUOUS
  2
_FILLED
 10
1709.5159869559
 20
1136.5245157661
 41
17.5
 42
17.5
 43
17.5
 50
180.0
  0
INSERT
  5
35A
100
AcDbEntity
  8
0
100
AcDbBlockReference
 62
2
  6
CONTINUOUS
  2
_FILLED
 10
1889.5159869559
 20
1136.5245157661
 41
17.5
 42
17.5
 43
17.5
  0
ENDBLK
  5
35B
100
AcDbEntity
  8
0
  6
BYBLOCK
 62
0
100
AcDbBlockEnd
  0
BLOCK
  5
35C
100
AcDbEntity
  8
0
100
AcDbBlockBegin
 62
2
  6
CONTINUOUS
  2
*D17
 70
65
 10
0.0
 20
0.0
  3
*D17
  1

  0
MTEXT
  5
35D
100
AcDbEntity
  8
0
100
AcDbMText
 62
5
  6
CONTINUOUS
  7
TEXTSTYLE_2
 71
3
 72
1
 10
1683.5291497598
 20
914.0674423963
 30
0.0
 11
0.7820259754
 21
0.6232458374
 31
0.0
 44
0.9
  1
{\Fgdt;n}\Ftxt;240
 40
12.5
 41
46.130952381
  0
LINE
  5
35E
100
AcDbEntity
  8
0
100
AcDbLine
 62
2
  6
CONTINUOUS
 10
1705.6728699103
 20
911.7350152786
 11
1799.5159869559
 21
986.5245157661
  0
LINE
  5
35F
100
AcDbEntity
  8
0
100
AcDbLine
 62
2
  6
CONTINUOUS
 10
1799.5159869559
 20
986.5245157661
 11
1657.1917629382
 21
873.0973624844
  0
LINE
  5
360
100
AcDbEntity
  8
0
100
AcDbLine
 62
2
  6
CONTINUOUS
 10
1893.3591040014
 20
1061.3140162536
 11
1799.5159869559
 21
986.5245157661
  0
INSERT
  5
361
100
AcDbEntity
  8
0
100
AcDbBlockReference
 62
2
  6
CONTINUOUS
  2
_FILLED
 10
1705.6728699103
 20
911.7350152786
 41
17.5
 42
17.5
 43
17.5
 50
218.5535520906
  0
INSERT
  5
362
100
AcDbEntity
  8
0
100
AcDbBlockReference
 62
2
  6
CONTINUOUS
  2
_FILLED
 10
1893.3591040014
 20
1061.3140162536
 41
17.5
 42
17.5
 43
17.5
 50
38.5535520906
  0
ENDBLK
  5
363
100
AcDbEntity
  8
0
  6
BYBLOCK
 62
0
100
AcDbBlockEnd
  0
BLOCK
  5
364
100
AcDbEntity
  8
0
100
AcDbBlockBegin
 62
2
  6
CONTINUOUS
  2
*D18
 70
65
 10
0.0
 20
0.0
  3
*D18
  1

  0
MTEXT
  5
365
100
AcDbEntity
  8
0
100
AcDbMText
 62
5
  6
CONTINUOUS
  7
TEXTSTYLE_2
 71
1
 72
1
 10
1904.4515075104
 20
850.2626315832
 30
0.0
 11
0.535640548
 21
-0.8444460926
 31
0.0
 44
0.9
  1
{\Fgdt;n}\Ftxt;200
 40
12.5
 41
46.130952381
  0
LINE
  5
366
100
AcDbEntity
  8
0
100
AcDbLine
 62
2
  6
CONTINUOUS
 10
1853.0800417529
 20
902.0799065023
 11
1799.5159869559
 21
986.5245157661
  0
LINE
  5
367
100
AcDbEntity
  8
0
100
AcDbLine
 62
2
  6
CONTINUOUS
 10
1799.5159869559
 20
986.5245157661
 11
1915.9666459246
 21
802.9381455334
  0
LINE
  5
368
100
AcDbEntity
  8
0
100
AcDbLine
 62
2
  6
CONTINUOUS
 10
1745.9519321589
 20
1070.9691250298
 11
1799.5159869559
 21
986.5245157661
  0
INSERT
  5
369
100
AcDbEntity
  8
0
100
AcDbBlockReference
 62
2
  6
CONTINUOUS
  2
_FILLED
 10
1853.0800417529
 20
902.0799065023
 41
17.5
 42
17.5
 43
17.5
 50
302.3873622315
  0
INSERT
  5
36A
100
AcDbEntity
  8
0
100
AcDbBlockReference
 62
2
  6
CONTINUOUS
  2
_FILLED
 10
1745.9519321589
 20
1070.9691250298
 41
17.5
 42
17.5
 43
17.5
 50
122.3873622315
  0
ENDBLK
  5
36B
100
AcDbEntity
  8
0
  6
BYBLOCK
 62
0
100
AcDbBlockEnd
  0
BLOCK
  5
36C
100
AcDbEntity
  8
0
100
AcDbBlockBegin
 62
2
  6
CONTINUOUS
  2
*D19
 70
65
 10
0.0
 20
0.0
  3
*D19
  1

  0
MTEXT
  5
36D
100
AcDbEntity
  8
0
100
AcDbMText
 62
5
  6
CONTINUOUS
  7
STANDARD
 71
3
 72
1
 10
1757.279039128
 20
1117.1495157661
 30
0.0
 11
1.0
 21
0.0
 31
0.0
 44
0.9
  1
M12
 40
12.5
 41
27.6785714286
  0
LINE
  5
36E
100
AcDbEntity
  8
0
100
AcDbLine
 62
2
  6
CONTINUOUS
 10
1864.2264717548
 20
1057.5855657636
 11
1864.1981905964
 21
1109.0832340692
  0
LINE
  5
36F
100
AcDbEntity
  8
0
100
AcDbLine
 62
2
  6
CONTINUOUS
 10
1876.2264752231
 20
1057.5825453095
 11
1876.1981887869
 21
1109.0898241511
  0
LINE
  5
370
100
AcDbEntity
  8
0
100
AcDbLine
 62
2
  6
CONTINUOUS
 10
1864.2023093976
 20
1101.5832352002
 11
1729.6004676995
 21
1101.5245157661
  0
LINE
  5
371
100
AcDbEntity
  8
0
100
AcDbLine
 62
2
  6
CONTINUOUS
 10
1729.6004676995
 20
1101.5245157661
 11
1870.2023084928
 21
1101.5865302411
  0
LINE
  5
372
100
AcDbEntity
  8
0
100
AcDbLine
 62
2
  6
CONTINUOUS
 10
1876.202307588
 20
1101.589825282
 11
1906.2023030641
 21
1101.6063004867
  0
LINE
  5
373
100
AcDbEntity
  8
0
100
AcDbLine
 62
2
  6
CONTINUOUS
 10
1906.2023030641
 20
1101.6063004867
 11
1870.2023084928
 21
1101.5865302411
  0
INSERT
  5
374
100
AcDbEntity
  8
0
100
AcDbBlockReference
 62
2
  6
CONTINUOUS
  2
_FILLED
 10
1864.2023093976
 20
1101.5832352002
 41
17.5
 42
17.5
 43
17.5
 50
0.0249950186
  0
INSERT
  5
375
100
AcDbEntity
  8
0
100
AcDbBlockReference
 62
2
  6
CONTINUOUS
  2
_FILLED
 10
1876.202307588
 20
1101.589825282
 41
17.5
 42
17.5
 43
17.5
 50
180.0314653246
  0
ENDBLK
  5
376
100
AcDbEntity
  8
0
  6
BYBLOCK
 62
0
100
AcDbBlockEnd
  0
BLOCK
  5
377
100
AcDbEntity
  8
0
100
AcDbBlockBegin
 62
2
  6
CONTINUOUS
  2
*D20
 70
65
 10
0.0
 20
0.0
  3
*D20
  1

  0
MTEXT
  5
378
100
AcDbEntity
  8
0
100
AcDbMText
 62
5
  6
CONTINUOUS
  7
TEXTSTYLE_2
 71
3
 72
1
 10
753.9543319903
 20
949.7175744507
 30
0.0
 11
0.0
 21
1.0
 31
0.0
 44
0.9
  1
{\Fgdt;n}\Ftxt;35
 40
12.5
 41
34.5238095238
  0
LINE
  5
379
100
AcDbEntity
  8
0
100
AcDbLine
 62
2
  6
CONTINUOUS
 10
877.5793319903
 20
969.0245157661
 11
762.0793319903
 21
969.0245157661
  0
LINE
  5
37A
100
AcDbEntity
  8
0
100
AcDbLine
 62
2
  6
CONTINUOUS
 10
877.5793319903
 20
1004.0245157661
 11
762.0793319903
 21
1004.0245157661
  0
LINE
  5
37B
100
AcDbEntity
  8
0
100
AcDbLine
 62
2
  6
CONTINUOUS
 10
769.5793319903
 20
969.0245157661
 11
769.5793319903
 21
915.1937649269
  0
LINE
  5
37C
100
AcDbEntity
  8
0
100
AcDbLine
 62
2
  6
CONTINUOUS
 10
769.5793319903
 20
915.1937649269
 11
769.5793319903
 21
986.5245157661
  0
LINE
  5
37D
100
AcDbEntity
  8
0
100
AcDbLine
 62
2
  6
CONTINUOUS
 10
769.5793319903
 20
1004.0245157661
 11
769.5793319903
 21
1034.0245157661
  0
LINE
  5
37E
100
AcDbEntity
  8
0
100
AcDbLine
 62
2
  6
CONTINUOUS
 10
769.5793319903
 20
1034.0245157661
 11
769.5793319903
 21
986.5245157661
  0
INSERT
  5
37F
100
AcDbEntity
  8
0
100
AcDbBlockReference
 62
2
  6
CONTINUOUS
  2
_FILLED
 10
769.5793319903
 20
969.0245157661
 41
17.5
 42
17.5
 43
17.5
 50
90.0
  0
INSERT
  5
380
100
AcDbEntity
  8
0
100
AcDbBlockReference
 62
2
  6
CONTINUOUS
  2
_FILLED
 10
769.5793319903
 20
1004.0245157661
 41
17.5
 42
17.5
 43
17.5
 50
270.0
  0
ENDBLK
  5
381
100
AcDbEntity
  8
0
  6
BYBLOCK
 62
0
100
AcDbBlockEnd
  0
BLOCK
  5
382
100
AcDbEntity
  8
0
100
AcDbBlockBegin
 62
2
  6
CONTINUOUS
  2
*D21
 70
65
 10
0.0
 20
0.0
  3
*D21
  1

  0
MTEXT
  5
383
100
AcDbEntity
  8
0
100
AcDbMText
 62
5
  6
CONTINUOUS
  7
STANDARD
 71
2
 72
1
 10
884.5793319903
 20
852.1495157661
 30
0.0
 11
1.0
 21
0.0
 31
0.0
 44
0.9
  1
80
 40
12.5
 41
19.6428571429
  0
LINE
  5
384
100
AcDbEntity
  8
0
100
AcDbLine
 62
2
  6
CONTINUOUS
 10
844.5793319903
 20
894.0245157661
 11
844.5793319903
 21
829.0245157661
  0
LINE
  5
385
100
AcDbEntity
  8
0
100
AcDbLine
 62
2
  6
CONTINUOUS
 10
924.5793319903
 20
971.5405945812
 11
924.5793319903
 21
829.0245157661
  0
LINE
  5
386
100
AcDbEntity
  8
0
100
AcDbLine
 62
2
  6
CONTINUOUS
 10
844.5793319903
 20
836.5245157661
 11
884.5793319903
 21
836.5245157661
  0
LINE
  5
387
100
AcDbEntity
  8
0
100
AcDbLine
 62
2
  6
CONTINUOUS
 10
924.5793319903
 20
836.5245157661
 11
884.5793319903
 21
836.5245157661
  0
INSERT
  5
388
100
AcDbEntity
  8
0
100
AcDbBlockReference
 62
2
  6
CONTINUOUS
  2
_FILLED
 10
844.5793319903
 20
836.5245157661
 41
17.5
 42
17.5
 43
17.5
 50
180.0
  0
INSERT
  5
389
100
AcDbEntity
  8
0
100
AcDbBlockReference
 62
2
  6
CONTINUOUS
  2
_FILLED
 10
924.5793319903
 20
836.5245157661
 41
17.5
 42
17.5
 43
17.5
  0
ENDBLK
  5
38A
100
AcDbEntity
  8
0
  6
BYBLOCK
 62
0
100
AcDbBlockEnd
  0
BLOCK
  5
38B
100
AcDbEntity
  8
0
100
AcDbBlockBegin
 62
2
  6
CONTINUOUS
  2
*D22
 70
65
 10
0.0
 20
0.0
  3
*D22
  1

  0
MTEXT
  5
38C
100
AcDbEntity
  8
0
100
AcDbMText
 62
5
  6
CONTINUOUS
  7
STANDARD
 71
2
 72
1
 10
896.8293319903
 20
1173.1495157661
 30
0.0
 11
1.0
 21
0.0
 31
0.0
 44
0.9
  1
104.5
 40
12.5
 41
42.8571428571
  0
LINE
  5
38D
100
AcDbEntity
  8
0
100
AcDbLine
 62
2
  6
CONTINUOUS
 10
844.5793319903
 20
1079.0245157661
 11
844.5793319903
 21
1165.0245157661
  0
LINE
  5
38E
100
AcDbEntity
  8
0
100
AcDbLine
 62
2
  6
CONTINUOUS
 10
949.0793319903
 20
1079.0245157661
 11
949.0793319903
 21
1165.0245157661
  0
LINE
  5
38F
100
AcDbEntity
  8
0
100
AcDbLine
 62
2
  6
CONTINUOUS
 10
844.5793319903
 20
1157.5245157661
 11
896.8293319903
 21
1157.5245157661
  0
LINE
  5
390
100
AcDbEntity
  8
0
100
AcDbLine
 62
2
  6
CONTINUOUS
 10
949.0793319903
 20
1157.5245157661
 11
896.8293319903
 21
1157.5245157661
  0
INSERT
  5
391
100
AcDbEntity
  8
0
100
AcDbBlockReference
 62
2
  6
CONTINUOUS
  2
_FILLED
 10
844.5793319903
 20
1157.5245157661
 41
17.5
 42
17.5
 43
17.5
 50
180.0
  0
INSERT
  5
392
100
AcDbEntity
  8
0
100
AcDbBlockReference
 62
2
  6
CONTINUOUS
  2
_FILLED
 10
949.0793319903
 20
1157.5245157661
 41
17.5
 42
17.5
 43
17.5
  0
ENDBLK
  5
393
100
AcDbEntity
  8
0
  6
BYBLOCK
 62
0
100
AcDbBlockEnd
  0
BLOCK
  5
394
100
AcDbEntity
  8
0
100
AcDbBlockBegin
 62
2
  6
CONTINUOUS
  2
*D23
 70
65
 10
0.0
 20
0.0
  3
*D23
  1

  0
MTEXT
  5
395
100
AcDbEntity
  8
0
100
AcDbMText
 62
5
  6
CONTINUOUS
  7
STANDARD
 71
3
 72
1
 10
807.1656108274
 20
887.1495157661
 30
0.0
 11
1.0
 21
0.0
 31
0.0
 44
0.9
  1
5.4
 40
12.5
 41
25.8928571429
  0
LINE
  5
396
100
AcDbEntity
  8
0
100
AcDbLine
 62
2
  6
CONTINUOUS
 10
844.5793319903
 20
930.0245157661
 11
844.5793319903
 21
864.0245157661
  0
LINE
  5
397
100
AcDbEntity
  8
0
100
AcDbLine
 62
2
  6
CONTINUOUS
 10
849.9793319903
 20
930.0245157661
 11
849.9793319903
 21
864.0245157661
  0
LINE
  5
398
100
AcDbEntity
  8
0
100
AcDbLine
 62
2
  6
CONTINUOUS
 10
844.5793319903
 20
871.5245157661
 11
781.2727536845
 21
871.5245157661
  0
LINE
  5
399
100
AcDbEntity
  8
0
100
AcDbLine
 62
2
  6
CONTINUOUS
 10
781.2727536845
 20
871.5245157661
 11
847.2793319903
 21
871.5245157661
  0
LINE
  5
39A
100
AcDbEntity
  8
0
100
AcDbLine
 62
2
  6
CONTINUOUS
 10
849.9793319903
 20
871.5245157661
 11
879.9793319903
 21
871.5245157661
  0
LINE
  5
39B
100
AcDbEntity
  8
0
100
AcDbLine
 62
2
  6
CONTINUOUS
 10
879.9793319903
 20
871.5245157661
 11
847.2793319903
 21
871.5245157661
  0
INSERT
  5
39C
100
AcDbEntity
  8
0
100
AcDbBlockReference
 62
2
  6
CONTINUOUS
  2
_FILLED
 10
844.5793319903
 20
871.5245157661
 41
17.5
 42
17.5
 43
17.5
  0
INSERT
  5
39D
100
AcDbEntity
  8
0
100
AcDbBlockReference
 62
2
  6
CONTINUOUS
  2
_FILLED
 10
849.9793319903
 20
871.5245157661
 41
17.5
 42
17.5
 43
17.5
 50
180.0
  0
ENDBLK
  5
39E
100
AcDbEntity
  8
0
  6
BYBLOCK
 62
0
100
AcDbBlockEnd
  0
BLOCK
  5
39F
100
AcDbEntity
  8
0
100
AcDbBlockBegin
 62
2
  6
CONTINUOUS
  2
*D24
 70
65
 10
0.0
 20
0.0
  3
*D24
  1

  0
MTEXT
  5
3A0
100
AcDbEntity
  8
0
100
AcDbMText
 62
5
  6
CONTINUOUS
  7
TEXTSTYLE_2
 71
2
 72
1
 10
703.9543319903
 20
986.5245157661
 30
0.0
 11
0.0
 21
1.0
 31
0.0
 44
0.9
  1
{\Fgdt;n}\Ftxt;114.3
 40
12.5
 41
56.8452380952
  0
LINE
  5
3A1
100
AcDbEntity
  8
0
100
AcDbLine
 62
2
  6
CONTINUOUS
 10
837.0793319903
 20
1043.6745157661
 11
712.0793319903
 21
1043.6745157661
  0
LINE
  5
3A2
100
AcDbEntity
  8
0
100
AcDbLine
 62
2
  6
CONTINUOUS
 10
837.0793319903
 20
929.3745157661
 11
712.0793319903
 21
929.3745157661
  0
LINE
  5
3A3
100
AcDbEntity
  8
0
100
AcDbLine
 62
2
  6
CONTINUOUS
 10
719.5793319903
 20
1043.6745157661
 11
719.5793319903
 21
986.5245157661
  0
LINE
  5
3A4
100
AcDbEntity
  8
0
100
AcDbLine
 62
2
  6
CONTINUOUS
 10
719.5793319903
 20
929.3745157661
 11
719.5793319903
 21
986.5245157661
  0
INSERT
  5
3A5
100
AcDbEntity
  8
0
100
AcDbBlockReference
 62
2
  6
CONTINUOUS
  2
_FILLED
 10
719.5793319903
 20
1043.6745157661
 41
17.5
 42
17.5
 43
17.5
 50
90.0
  0
INSERT
  5
3A6
100
AcDbEntity
  8
0
100
AcDbBlockReference
 62
2
  6
CONTINUOUS
  2
_FILLED
 10
719.5793319903
 20
929.3745157661
 41
17.5
 42
17.5
 43
17.5
 50
270.0
  0
ENDBLK
  5
3A7
100
AcDbEntity
  8
0
  6
BYBLOCK
 62
0
100
AcDbBlockEnd
  0
ENDSEC
  0
SECTION
  2
ENTITIES
  0
DIMENSION
  5
3A8
100
AcDbEntity
  8
ZEICHNUNGSBEMASSUNGEN
100
AcDbDimension
 62
2
  6
CONTINUOUS
  2
*D0
 10
844.5793319903
 20
1207.5245157661
 11
995.9234417388
 21
1216.8995157661
 70
160
 71
2
 42
365.0
  3
DIMSTYLE_1
100
AcDbAlignedDimension
 13
1209.5793319903
 23
1017.0245157661
 14
844.5793319903
 24
975.9942469034
 50
180.0
100
AcDbRotatedDimension
  0
DIMENSION
  5
3A9
100
AcDbEntity
  8
ZEICHNUNGSBEMASSUNGEN
100
AcDbDimension
 62
2
  6
CONTINUOUS
  2
*D1
 10
949.0793319903
 20
1157.5245157661
 11
1003.3471891331
 21
1166.8995157661
 70
160
 71
2
 42
150.5
  3
DIMSTYLE_1
100
AcDbAlignedDimension
 13
1099.5793319903
 23
1054.0245157661
 14
949.0793319903
 24
926.9625395863
 50
180.0
100
AcDbRotatedDimension
  0
DIMENSION
  5
3AA
100
AcDbEntity
  8
0
100
AcDbDimension
 62
2
  6
CONTINUOUS
  2
*D2
 10
363.1959567929
 20
1161.5245157661
 11
281.2026532215
 21
1170.8995157661
 70
160
 71
2
 42
142.0
  1
{\Fgdt;o}<>
  3
DIMSTYLE_2
100
AcDbAlignedDimension
 13
221.1959567929
 23
1049.8748039895
 14
363.1959567929
 24
1049.8748039895
100
AcDbRotatedDimension
  0
DIMENSION
  5
3AB
100
AcDbEntity
  8
0
100
AcDbDimension
 62
2
  6
CONTINUOUS
  2
*D3
 10
357.8171169419
 20
921.3316224364
 11
408.8914424427
 21
883.805684939
 70
163
 71
1
 42
185.0
  1
<>
  3
DIMSTYLE_3
100
AcDbDiametricDimension
 15
226.5747966439
 25
1051.7174090958
  0
DIMENSION
  5
3AC
100
AcDbEntity
  8
0
100
AcDbDimension
 62
2
  6
CONTINUOUS
  2
*D4
 10
1099.5793319903
 20
1107.5245157661
 11
1047.2361506662
 21
1116.8995157661
 70
160
 71
3
 42
28.0
  3
DIMSTYLE_4
100
AcDbAlignedDimension
 13
1127.5793319903
 23
1054.0245157661
 14
1099.5793319903
 24
1054.0245157661
 50
180.0
100
AcDbRotatedDimension
  0
DIMENSION
  5
3AD
100
AcDbEntity
  8
0
100
AcDbDimension
 62
2
  6
CONTINUOUS
  2
*D5
 10
1384.5793319903
 20
1051.5245157661
 11
1379.9717819238
 21
972.6907015944
 70
160
 71
2
 42
130.0
  1
%%c<>
  3
DIMSTYLE_5
100
AcDbAlignedDimension
 13
1102.0793319903
 23
921.5245157661
 14
1102.0793319903
 24
1051.5245157661
 50
90.0
100
AcDbRotatedDimension
  0
LEADER
  5
3AE
100
AcDbEntity
  8
0
100
AcDbLeader
 62
2
  6
CONTINUOUS
  3
STANDARD
 71
1
 72
0
 73
2
 75
0
 76
3
 10
1384.5793319903
 20
921.5245157661
 30
0.0
 10
1384.5793319903
 20
840.5245157661
 30
0.0
 10
1372.3486994308
 20
840.5245157661
 30
0.0
340
3AF
1001
ACAD
1000
DSTYLE
1002
{
1070
77
1070
0
1002
}
  0
INSERT
  5
3AF
102
{ACAD_REACTORS
330
3AE
102
}
100
AcDbEntity
  8
0
100
AcDbBlockReference
 62
2
  6
CONTINUOUS
  2
SYMBOL_64_BL0
 10
1299.8486994308
 20
839.2305619768
  0
INSERT
  5
3B0
100
AcDbEntity
  8
0
100
AcDbBlockReference
 62
2
  6
CONTINUOUS
  2
SYMBOL_38_BL1
 10
1384.5793319903
 20
1082.7745157661
  0
DIMENSION
  5
3B1
100
AcDbEntity
  8
0
100
AcDbDimension
 62
2
  6
CONTINUOUS
  2
*D6
 10
1334.5262989241
 20
951.187090552
 11
1324.152576464
 21
979.635165487
 70
160
 71
2
 42
70.0
  1
%%c<>
  3
DIMSTYLE_6
100
AcDbAlignedDimension
 13
1132.0793319903
 23
1021.5172260778
 14
1132.0793319903
 24
951.517133056
 50
269.906592694
100
AcDbRotatedDimension
  0
DIMENSION
  5
3B2
100
AcDbEntity
  8
0
100
AcDbDimension
 62
2
  6
CONTINUOUS
  2
*D7
 10
1209.5793319903
 20
1132.5245157661
 11
1159.7579034189
 21
1141.8995157661
 70
160
 71
2
 42
80.0
  3
DIMSTYLE_7
100
AcDbAlignedDimension
 13
1129.5793319903
 23
1024.0245157661
 14
1209.5793319903
 24
1017.0245157661
100
AcDbRotatedDimension
  0
DIMENSION
  5
3B3
100
AcDbEntity
  8
0
100
AcDbDimension
 62
2
  6
CONTINUOUS
  2
*D8
 10
1284.5793319903
 20
1006.5245157661
 11
1283.3390018069
 21
877.13945729
 70
160
 71
3
 42
40.0
  1
%%c<>
  3
DIMSTYLE_8
100
AcDbAlignedDimension
 13
1212.0793319903
 23
966.5245157661
 14
1212.0793319903
 24
1006.5245157661
 50
90.0
100
AcDbRotatedDimension
  0
LEADER
  5
3B4
100
AcDbEntity
  8
0
100
AcDbLeader
 62
2
  6
CONTINUOUS
  3
STANDARD
 71
1
 72
0
 73
2
 75
0
 76
3
 10
1272.8642024046
 20
1006.5245157661
 30
0.0
 10
1273.0774046703
 20
1157.5245157661
 30
0.0
 10
1285.9510466137
 20
1157.5245157661
 30
0.0
340
3B5
1001
ACAD
1000
DSTYLE
1002
{
1070
77
1070
0
1002
}
  0
INSERT
  5
3B5
102
{ACAD_REACTORS
330
3B4
102
}
100
AcDbEntity
  8
0
100
AcDbBlockReference
 62
2
  6
CONTINUOUS
  2
SYMBOL_47_BL2
 10
1365.9510261439
 20
1156.8015240848
  0
DIMENSION
  5
3B6
100
AcDbEntity
  8
0
100
AcDbDimension
 62
2
  6
CONTINUOUS
  2
*D9
 10
403.6003208037
 20
1105.7070543699
 11
452.095756172
 21
1070.4698711489
 70
160
 71
1
 42
11.0
  3
DIMSTYLE_9
100
AcDbAlignedDimension
 13
358.2230742653
 23
1044.7734586454
 14
350.693790323
 24
1052.8005238893
 50
135.0
100
AcDbRotatedDimension
  0
DIMENSION
  5
3B7
100
AcDbEntity
  8
ZEICHNUNGSBEMASSUNGEN
100
AcDbDimension
 62
2
  6
CONTINUOUS
  2
*D10
 10
1099.5793319903
 20
1157.5245157661
 11
1142.5257605617
 21
1166.8995157661
 70
160
 71
2
 42
110.0
  3
DIMSTYLE_7
100
AcDbAlignedDimension
 13
1209.5793319903
 23
1017.0245157661
 14
1099.5793319903
 24
1054.0245157661
 50
180.0
100
AcDbRotatedDimension
  0
DIMENSION
  5
3B8
100
AcDbEntity
  8
ZEICHNUNGSBEMASSUNGEN
100
AcDbDimension
 62
2
  6
CONTINUOUS
  2
*D11
 10
1176.1076833612
 20
926.4701298351
 11
1143.7432620268
 21
911.826358252
 70
162
 71
2
 42
0.0872664277
  3
DIMSTYLE_10
100
AcDb2LineAngularDimension
 13
1176.3236134482
 23
921.5245157661
 14
1127.0793314442
 24
921.5245157661
 15
1158.0473855749
 25
924.8900591545
 16
1168.776743557
 26
923.6725333309
  0
DIMENSION
  5
3B9
100
AcDbEntity
  8
ZEICHNUNGSBEMASSUNGEN
100
AcDbDimension
 62
2
  6
CONTINUOUS
  2
*D12
 10
1099.5793319903
 20
840.5245157661
 11
1036.2979671626
 21
849.8995157661
 70
160
 71
3
 42
12.0
  3
DIMSTYLE_4
100
AcDbAlignedDimension
 13
1087.5793319903
 23
910.5245157661
 14
1099.5793319903
 24
910.5245157661
100
AcDbRotatedDimension
  0
INSERT
  5
3BA
100
AcDbEntity
  8
0
100
AcDbBlockReference
 62
2
  6
CONTINUOUS
  2
SYMBOL_70_BL3
 10
1130.8293319903
 20
870.6812558272
  0
DIMENSION
  5
3BB
100
AcDbEntity
  8
0
100
AcDbDimension
 62
2
  6
CONTINUOUS
  2
*D13
 10
373.6814147844
 20
973.6260609782
 11
461.3097896367
 21
971.2071740166
 70
163
 71
1
 42
165.0
  1
 <>
  3
DIMSTYLE_11
100
AcDbDiametricDimension
 15
210.7104988014
 25
999.4229705539
  0
DIMENSION
  5
3BC
100
AcDbEntity
  8
ZEICHNUNGSBEMASSUNGEN
100
AcDbDimension
 62
2
  6
CONTINUOUS
  2
*D14
 10
1119.5792722349
 20
1082.5245157661
 11
1041.5669472767
 21
1091.8995157661
 70
160
 71
3
 42
19.9999402446
  3
DIMSTYLE_4
100
AcDbAlignedDimension
 13
1099.5793319903
 23
1054.0245157661
 14
1119.5792722349
 24
1054.0245157661
100
AcDbRotatedDimension
  0
DIMENSION
  5
3BD
100
AcDbEntity
  8
0
100
AcDbDimension
 62
2
  6
CONTINUOUS
  2
*D15
 10
844.5793319903
 20
1096.5245157661
 11
866.7043319903
 21
1105.8995157661
 70
160
 71
2
 42
63.0
  3
DIMSTYLE_7
100
AcDbAlignedDimension
 13
907.5793319903
 23
1079.0245157661
 14
844.5793319903
 24
1079.0245157661
 50
180.0
100
AcDbRotatedDimension
  0
DIMENSION
  5
3BE
100
AcDbEntity
  8
0
100
AcDbDimension
 62
2
  6
CONTINUOUS
  2
*D16
 10
1889.5159869559
 20
1136.5245157661
 11
1788.5226833845
 21
1145.8995157661
 70
160
 71
2
 42
180.0
  1
{\Fgdt;o}<>
  3
DIMSTYLE_1
100
AcDbAlignedDimension
 13
1709.5159869559
 23
1069.7656650438
 14
1889.5159869559
 24
1069.744279183
100
AcDbRotatedDimension
  0
DIMENSION
  5
3BF
100
AcDbEntity
  8
0
100
AcDbDimension
 62
2
  6
CONTINUOUS
  2
*D17
 10
1705.6728699103
 20
911.7350152786
 11
1654.2409024541
 21
877.4082556626
 70
163
 71
3
 42
240.0
  1
<>
  3
DIMSTYLE_12
100
AcDbDiametricDimension
 15
1893.3591040014
 25
1061.3140162536
  0
DIMENSION
  5
3C0
100
AcDbEntity
  8
0
100
AcDbDimension
 62
2
  6
CONTINUOUS
  2
*D18
 10
1853.0800417529
 20
902.0799065023
 11
1911.5285237373
 21
827.4373269145
 70
163
 71
1
 42
200.0
  1
<>
  3
DIMSTYLE_12
100
AcDbDiametricDimension
 15
1745.9519321589
 25
1070.9691250298
  0
DIMENSION
  5
3C1
100
AcDbEntity
  8
0
100
AcDbDimension
 62
2
  6
CONTINUOUS
  2
*D19
 10
1876.202307588
 20
1101.589825282
 11
1729.6004676995
 21
1110.8995157661
 70
160
 71
3
 42
12.0
  1
M<>
  3
DIMSTYLE_4
100
AcDbAlignedDimension
 13
1864.2264717548
 23
1057.5855657636
 14
1876.2264752231
 24
1057.5825453095
 50
0.0314653246
100
AcDbRotatedDimension
  0
DIMENSION
  5
3C2
100
AcDbEntity
  8
0
100
AcDbDimension
 62
2
  6
CONTINUOUS
  2
*D20
 10
769.5793319903
 20
1004.0245157661
 11
767.9389360782
 21
917.0235844243
 70
160
 71
3
 42
35.0
  1
%%c<>
  3
DIMSTYLE_7
100
AcDbAlignedDimension
 13
877.5793319903
 23
969.0245157661
 14
877.5793319903
 24
1004.0245157661
 50
90.0
100
AcDbRotatedDimension
  0
DIMENSION
  5
3C3
100
AcDbEntity
  8
0
100
AcDbDimension
 62
2
  6
CONTINUOUS
  2
*D21
 10
924.5793319903
 20
836.5245157661
 11
874.7579034189
 21
845.8995157661
 70
160
 71
2
 42
80.0
  3
DIMSTYLE_7
100
AcDbAlignedDimension
 13
844.5793319903
 23
894.0245157661
 14
924.5793319903
 24
971.5405945812
100
AcDbRotatedDimension
  0
DIMENSION
  5
3C4
100
AcDbEntity
  8
0
100
AcDbDimension
 62
2
  6
CONTINUOUS
  2
*D22
 10
949.0793319903
 20
1157.5245157661
 11
875.4007605617
 21
1166.8995157661
 70
160
 71
2
 42
104.5
  3
DIMSTYLE_7
100
AcDbAlignedDimension
 13
844.5793319903
 23
1079.0245157661
 14
949.0793319903
 24
1079.0245157661
100
AcDbRotatedDimension
  0
DIMENSION
  5
3C5
100
AcDbEntity
  8
0
100
AcDbDimension
 62
2
  6
CONTINUOUS
  2
*D23
 10
849.9793319903
 20
871.5245157661
 11
768.3263251131
 21
880.8995157661
 70
160
 71
3
 42
5.4
  3
DIMSTYLE_13
100
AcDbAlignedDimension
 13
844.5793319903
 23
930.0245157661
 14
849.9793319903
 24
930.0245157661
100
AcDbRotatedDimension
  0
DIMENSION
  5
3C6
100
AcDbEntity
  8
0
100
AcDbDimension
 62
2
  6
CONTINUOUS
  2
*D24
 10
719.5793319903
 20
929.3745157661
 11
716.5720448386
 21
973.8196524664
 70
160
 71
2
 42
114.3
  1
%%c<>
  3
DIMSTYLE_7
100
AcDbAlignedDimension
 13
837.0793319903
 23
1043.6745157661
 14
837.0793319903
 24
929.3745157661
 50
270.0
100
AcDbRotatedDimension
  0
LEADER
  5
3C7
100
AcDbEntity
  8
0
100
AcDbLeader
 62
2
  6
CONTINUOUS
  3
STANDARD
 71
1
 72
0
 73
0
 75
0
 40
12.5
 41
69.6428571429
 76
3
 10
1129.5793106454
 20
966.5245157661
 30
0.0
 10
1254.5793319903
 20
880.5245157661
 30
0.0
 10
1279.5793319903
 20
880.5245157661
 30
0.0
340
3C8
1001
ACAD
1000
DSTYLE
1002
{
1070
77
1070
0
1002
}
  0
MTEXT
  5
3C8
102
{ACAD_REACTORS
330
3C7
102
}
100
AcDbEntity
  8
0
100
AcDbMText
 62
5
  6
CONTINUOUS
  7
STANDARD
 71
1
 72
1
 10
1279.5793319903
 20
886.7745157661
 30
0.0
 11
1.0
 21
0.0
 31
0.0
 44
0.9
  1
max.R1.5
 40
12.5
 41
69.6428571429
  0
MTEXT
  5
3C9
100
AcDbEntity
  8
0
100
AcDbMText
 62
5
  6
CONTINUOUS
  7
STANDARD
 71
1
 72
1
 10
1268.8816382032
 20
919.3078711145
 30
0.0
 11
0.0
 21
1.0
 31
0.0
 44
0.9
  1
k6
 40
12.5
 41
18.75
  0
MTEXT
  5
3CA
100
AcDbEntity
  8
0
100
AcDbMText
 62
5
  6
CONTINUOUS
  7
STANDARD
 71
1
 72
1
 10
1367.3897390123
 20
1013.5694653887
 30
0.0
 11
0.0
 21
1.0
 31
0.0
 44
0.9
  1
g7
 40
12.5
 41
18.75
  0
MTEXT
  5
3CB
100
AcDbEntity
  8
0
100
AcDbMText
 62
5
  6
CONTINUOUS
  7
STANDARD
 71
1
 72
1
 10
1340.2899436596
 20
1162.6446539992
 30
0.0
 11
1.0
 21
0.0
 31
0.0
 44
0.9
  1
0,04
 40
12.5
 41
36.6071428571
  0
MTEXT
  5
3CC
100
AcDbEntity
  8
0
100
AcDbMText
 62
5
  6
CONTINUOUS
  7
STANDARD
 71
1
 72
1
 10
1287.2764162282
 20
845.2089069245
 30
0.0
 11
1.0
 21
0.0
 31
0.0
 44
0.9
  1
0,03
 40
12.5
 41
35.7142857143
  0
MTEXT
  5
3CD
100
AcDbEntity
  8
0
100
AcDbMText
 62
5
  6
CONTINUOUS
  7
STANDARD
 71
1
 72
1
 10
1403.2698334983
 20
1162.8438994931
 30
0.0
 11
1.0
 21
0.0
 31
0.0
 44
0.9
  1
A
 40
12.5
 41
13.0952380952
  0
MTEXT
  5
3CE
100
AcDbEntity
  8
0
100
AcDbMText
 62
5
  6
CONTINUOUS
  7
STANDARD
 71
1
 72
1
 10
1428.547065815
 20
1163.0499568925
 30
0.0
 11
1.0
 21
0.0
 31
0.0
 44
0.9
  1
B
 40
12.5
 41
12.2023809524
  0
MTEXT
  5
3CF
100
AcDbEntity
  8
0
100
AcDbMText
 62
5
  6
CONTINUOUS
  7
STANDARD
 71
1
 72
1
 10
1348.4387731946
 20
845.724640427
 30
0.0
 11
1.0
 21
0.0
 31
0.0
 44
0.9
  1
A
 40
12.5
 41
13.0952380952
  0
MTEXT
  5
3D0
100
AcDbEntity
  8
0
100
AcDbMText
 62
5
  6
CONTINUOUS
  7
STANDARD
 71
1
 72
1
 10
1379.2182646551
 20
1102.6362128376
 30
0.0
 11
1.0
 21
0.0
 31
0.0
 44
0.9
  1
B
 40
12.5
 41
12.2023809524
  0
MTEXT
  5
3D1
100
AcDbEntity
  8
0
100
AcDbMText
 62
5
  6
CONTINUOUS
  7
STANDARD
 71
1
 72
1
 10
1138.5480600915
 20
876.3941149068
 30
0.0
 11
1.0
 21
0.0
 31
0.0
 44
0.9
  1
A
 40
12.5
 41
13.0952380952
  0
MTEXT
  5
3D2
100
AcDbEntity
  8
0
100
AcDbMText
 62
5
  6
CONTINUOUS
  7
STANDARD
 71
1
 72
1
 10
750.1838447174
 20
1035.0058667519
 30
0.0
 11
0.0
 21
1.0
 31
0.0
 44
0.9
  1
(for shaft diam. tol. j6/k6)
 40
12.5
 41
232.1428571429
  0
MTEXT
  5
3D3
100
AcDbEntity
  8
0
100
AcDbMText
 62
5
  6
CONTINUOUS
  7
STANDARD
 71
1
 72
1
 10
396.9945729899
 20
991.7222594256
 30
0.0
 11
0.9426414911
 21
-0.3338068592
 31
0.0
 44
0.9
  1
pcd.
 40
12.5
 41
33.0357142857
  0
MTEXT
  5
3D4
100
AcDbEntity
  8
0
100
AcDbMText
 62
5
  6
CONTINUOUS
  7
TEXTSTYLE_2
 71
1
 72
1
 10
436.4814717464
 20
1094.6491897644
 30
0.0
 11
0.7071067812
 21
-0.7071067812
 31
0.0
 44
0.9
  1
{\Fgdt;n}
 40
12.5
 41
18.75
  0
MTEXT
  5
3D5
100
AcDbEntity
  8
0
100
AcDbMText
 62
5
  6
CONTINUOUS
  7
STANDARD
 71
1
 72
1
 10
1886.0015460324
 20
876.2315506271
 30
0.0
 11
0.5877852523
 21
-0.8090169944
 31
0.0
 44
0.9
  1
pcd.
 40
12.5
 41
33.0357142857
  0
MTEXT
  5
3D6
100
AcDbEntity
  8
0
100
AcDbMText
 62
5
  6
CONTINUOUS
  7
STANDARD
 71
1
 72
1
 10
1757.4293979798
 20
1117.0676830642
 30
0.0
 11
1.0
 21
0.0
 31
0.0
 44
0.9
  1
x24 deep
 40
12.5
 41
74.1071428571
  0
LINE
  5
3D7
100
AcDbEntity
  8
0
100
AcDbLine
 62
2
  6
CONTINUOUS
 10
23.966061737
 20
1460.2351977443
 11
23.966061737
 21
25.1757093461
  0
LINE
  5
3D8
100
AcDbEntity
  8
0
100
AcDbLine
 62
2
  6
CONTINUOUS
 10
23.966061737
 20
25.1757093461
 11
2075.5540400189
 21
25.1757093461
  0
LINE
  5
3D9
100
AcDbEntity
  8
0
100
AcDbLine
 62
2
  6
CONTINUOUS
 10
2075.5540400189
 20
1460.2351977443
 11
23.966061737
 21
1460.2351977443
  0
LINE
  5
3DA
100
AcDbEntity
  8
0
100
AcDbLine
 62
2
  6
CONTINUOUS
 10
2075.5540400189
 20
25.1757093461
 11
2075.5540400189
 21
1460.2351977443
  0
LINE
  5
3DB
100
AcDbEntity
  8
0
100
AcDbLine
 62
7
  6
CONTINUOUS
 10
844.5793319903
 20
1076.5245157661
 11
844.5793319903
 21
896.5245157661
  0
LINE
  5
3DC
100
AcDbEntity
  8
AUSBLENDEN
100
AcDbLine
 62
2
  6
CENTER
 10
849.9793319903
 20
1043.6745157661
 11
849.9793319903
 21
929.3745157661
  0
LINE
  5
3DD
100
AcDbEntity
  8
0
100
AcDbLine
 62
7
  6
CONTINUOUS
 10
885.8831795676
 20
965.9245157661
 11
885.8831795676
 21
959.9245157661
  0
LINE
  5
3DE
100
AcDbEntity
  8
BEZUGSACHSEN
100
AcDbLine
 62
2
  6
CENTER
 10
891.0793319903
 20
962.9245157661
 11
891.0793319903
 21
939.1745157661
  0
LINE
  5
3DF
100
AcDbEntity
  8
BEZUGSACHSEN
100
AcDbLine
 62
2
  6
CENTER
 10
891.0793319903
 20
962.9245157661
 11
891.0793319903
 21
972.42739812
  0
LINE
  5
3E0
100
AcDbEntity
  8
BEZUGSACHSEN
100
AcDbLine
 62
2
  6
CENTER
 10
891.0793319903
 20
972.42739812
 11
891.0793319903
 21
986.6745157661
  0
LINE
  5
3E1
100
AcDbEntity
  8
0
100
AcDbLine
 62
7
  6
CONTINUOUS
 10
896.275484413
 20
959.9245157661
 11
896.275484413
 21
965.9245157661
  0
LINE
  5
3E2
100
AcDbEntity
  8
0
100
AcDbLine
 62
7
  6
CONTINUOUS
 10
907.5793319903
 20
1076.5245157661
 11
907.5793319903
 21
896.5245157661
  0
LINE
  5
3E3
100
AcDbEntity
  8
ANSICHT_3D
100
AcDbLine
 62
2
  6
CENTER
 10
924.5793319903
 20
969.0405945812
 11
924.5793319903
 21
1004.0245157661
  0
LINE
  5
3E4
100
AcDbEntity
  8
0
100
AcDbLine
 62
7
  6
CONTINUOUS
 10
943.351848019
 20
1057.4745157661
 11
943.351848019
 21
1045.7959254001
  0
LINE
  5
3E5
100
AcDbEntity
  8
0
100
AcDbLine
 62
7
  6
CONTINUOUS
 10
943.351848019
 20
927.2531061321
 11
943.351848019
 21
915.5745157661
  0
LINE
  5
3E6
100
AcDbEntity
  8
0
100
AcDbLine
 62
7
  6
CONTINUOUS
 10
907.5793319903
 20
896.5245157661
 11
844.5793319903
 21
896.5245157661
  0
LINE
  5
3E7
100
AcDbEntity
  8
0
100
AcDbLine
 62
7
  6
CONTINUOUS
 10
885.8831795676
 20
959.9245157661
 11
891.0793319903
 21
956.9245157661
  0
LINE
  5
3E8
100
AcDbEntity
  8
0
100
AcDbLine
 62
7
  6
CONTINUOUS
 10
896.275484413
 20
965.9245157661
 11
891.0793319903
 21
968.9245157661
  0
LINE
  5
3E9
100
AcDbEntity
  8
0
100
AcDbLine
 62
7
  6
CONTINUOUS
 10
949.0793319903
 20
915.5245157661
 11
949.0793319903
 21
1057.5245157661
  0
LINE
  5
3EA
100
AcDbEntity
  8
FASEN
100
AcDbLine
 62
7
  6
CONTINUOUS
 10
1127.5793297487
 20
922.2244507422
 11
1119.5793291783
 21
921.5245416656
  0
LINE
  5
3EB
100
AcDbEntity
  8
0
100
AcDbLine
 62
7
  6
CONTINUOUS
 10
907.5793319903
 20
907.1519764341
 11
844.5793319903
 21
907.1519764341
  0
LINE
  5
3EC
100
AcDbEntity
  8
0
100
AcDbLine
 62
7
  6
CONTINUOUS
 10
1099.5793319903
 20
915.5245157661
 11
1087.5793319903
 21
915.5245157661
  0
LINE
  5
3ED
100
AcDbEntity
  8
0
100
AcDbLine
 62
7
  6
CONTINUOUS
 10
949.0793319903
 20
915.5245157661
 11
1060.8318545708
 21
915.5245157661
  0
LINE
  5
3EE
100
AcDbEntity
  8
0
100
AcDbLine
 62
7
  6
CONTINUOUS
 10
949.0793319903
 20
915.5745157661
 11
907.5793319903
 21
915.5745157661
  0
LINE
  5
3EF
100
AcDbEntity
  8
0
100
AcDbLine
 62
7
  6
CONTINUOUS
 10
1063.5793319903
 20
916.5245157661
 11
1087.5793319903
 21
916.5245157661
  0
LINE
  5
3F0
100
AcDbEntity
  8
0
100
AcDbLine
 62
7
  6
CONTINUOUS
 10
1099.5793319903
 20
921.5245157661
 11
1119.5793314442
 21
921.5245157661
  0
LINE
  5
3F1
100
AcDbEntity
  8
0
100
AcDbLine
 62
7
  6
CONTINUOUS
 10
1099.5793319903
 20
927.2349719999
 11
1087.5793319903
 21
927.2349719999
  0
LINE
  5
3F2
100
AcDbEntity
  8
0
100
AcDbLine
 62
7
  6
CONTINUOUS
 10
943.351848019
 20
927.2531061321
 11
907.5793319903
 21
927.2531061321
  0
LINE
  5
3F3
100
AcDbEntity
  8
AUSBLENDEN
100
AcDbLine
 62
2
  6
CENTER
 10
849.9793319903
 20
929.3745157661
 11
844.5793319903
 21
929.3745157661
  0
LINE
  5
3F4
100
AcDbEntity
  8
0
100
AcDbLine
 62
7
  6
CONTINUOUS
 10
891.0793319903
 20
968.9245157661
 11
885.8831795676
 21
965.9245157661
  0
LINE
  5
3F5
100
AcDbEntity
  8
0
100
AcDbLine
 62
7
  6
CONTINUOUS
 10
891.0793319903
 20
956.9245157661
 11
896.275484413
 21
959.9245157661
  0
LINE
  5
3F6
100
AcDbEntity
  8
0
100
AcDbLine
 62
7
  6
CONTINUOUS
 10
949.0793319903
 20
946.5088938166
 11
990.0615148226
 21
946.5088938166
  0
LINE
  5
3F7
100
AcDbEntity
  8
0
100
AcDbLine
 62
7
  6
CONTINUOUS
 10
990.0615148226
 20
1057.5245157661
 11
990.0615148226
 21
1026.5401377155
  0
LINE
  5
3F8
100
AcDbEntity
  8
0
100
AcDbLine
 62
7
  6
CONTINUOUS
 10
990.0615148226
 20
915.5245157661
 11
990.0615148226
 21
946.5088938166
  0
LINE
  5
3F9
100
AcDbEntity
  8
0
100
AcDbLine
 62
7
  6
CONTINUOUS
 10
1127.5793319903
 20
951.5245157661
 11
1129.5793319903
 21
951.5245157661
  0
LINE
  5
3FA
100
AcDbEntity
  8
BEZUGSACHSEN
100
AcDbLine
 62
2
  6
CENTER
 10
891.0793319903
 20
962.9245157661
 11
875.5709303015
 21
962.9245157661
  0
LINE
  5
3FB
100
AcDbEntity
  8
BEZUGSACHSEN
100
AcDbLine
 62
2
  6
CENTER
 10
875.5709303015
 20
962.9245157661
 11
867.3293319903
 21
962.9245157661
  0
LINE
  5
3FC
100
AcDbEntity
  8
BEZUGSACHSEN
100
AcDbLine
 62
2
  6
CENTER
 10
891.0793319903
 20
962.9245157661
 11
914.8293319903
 21
962.9245157661
  0
LINE
  5
3FD
100
AcDbEntity
  8
0
100
AcDbLine
 62
7
  6
CONTINUOUS
 10
1129.5793319903
 20
966.5245157661
 11
1209.5793319903
 21
966.5245157661
  0
LINE
  5
3FE
100
AcDbEntity
  8
ANSICHT_3D
100
AcDbLine
 62
2
  6
CENTER
 10
880.0793319903
 20
969.0405945812
 11
924.5793319903
 21
969.0405945812
  0
LINE
  5
3FF
100
AcDbEntity
  8
TEIL_STARTBEZUEGE
100
AcDbLine
 62
2
  6
CENTER
 10
1219.5793319903
 20
986.5245157661
 11
834.5793319903
 21
986.5245157661
  0
LINE
  5
400
100
AcDbEntity
  8
0
100
AcDbLine
 62
7
  6
CONTINUOUS
 10
1044.0793319903
 20
915.5245157661
 11
1044.0793319903
 21
1057.5245157661
  0
LINE
  5
401
100
AcDbEntity
  8
ANSICHT_3D
100
AcDbLine
 62
2
  6
CENTER
 10
924.5793319903
 20
1004.0245157661
 11
880.0793319903
 21
1004.0245157661
  0
LINE
  5
402
100
AcDbEntity
  8
0
100
AcDbLine
 62
7
  6
CONTINUOUS
 10
1129.5793319903
 20
1006.5245157661
 11
1209.5793319903
 21
1006.5245157661
  0
LINE
  5
403
100
AcDbEntity
  8
0
100
AcDbLine
 62
7
  6
CONTINUOUS
 10
1060.8318545708
 20
915.5245157661
 11
1060.8318545708
 21
1057.5245157661
  0
LINE
  5
404
100
AcDbEntity
  8
0
100
AcDbLine
 62
7
  6
CONTINUOUS
 10
1063.5793319903
 20
916.5245157661
 11
1063.5793319903
 21
1056.5245157661
  0
LINE
  5
405
100
AcDbEntity
  8
0
100
AcDbLine
 62
7
  6
CONTINUOUS
 10
1127.5793319903
 20
1021.5245157661
 11
1129.5793319903
 21
1021.5245157661
  0
LINE
  5
406
100
AcDbEntity
  8
0
100
AcDbLine
 62
7
  6
CONTINUOUS
 10
949.0793319903
 20
1026.5401377155
 11
990.0615148226
 21
1026.5401377155
  0
LINE
  5
407
100
AcDbEntity
  8
AUSBLENDEN
100
AcDbLine
 62
2
  6
CENTER
 10
844.5793319903
 20
1043.6745157661
 11
849.9793319903
 21
1043.6745157661
  0
LINE
  5
408
100
AcDbEntity
  8
0
100
AcDbLine
 62
7
  6
CONTINUOUS
 10
1087.5793319903
 20
915.5245157661
 11
1087.5793319903
 21
1057.5245157661
  0
LINE
  5
409
100
AcDbEntity
  8
0
100
AcDbLine
 62
7
  6
CONTINUOUS
 10
943.351848019
 20
1045.7959254001
 11
907.5793319903
 21
1045.7959254001
  0
LINE
  5
40A
100
AcDbEntity
  8
0
100
AcDbLine
 62
7
  6
CONTINUOUS
 10
1099.5793319903
 20
1045.8140595322
 11
1087.5793319903
 21
1045.8140595322
  0
LINE
  5
40B
100
AcDbEntity
  8
0
100
AcDbLine
 62
7
  6
CONTINUOUS
 10
1099.5793319903
 20
1051.5245157661
 11
1119.5793314442
 21
1051.5245157661
  0
LINE
  5
40C
100
AcDbEntity
  8
0
100
AcDbLine
 62
7
  6
CONTINUOUS
 10
1063.5793319903
 20
1056.5245157661
 11
1087.5793319903
 21
1056.5245157661
  0
LINE
  5
40D
100
AcDbEntity
  8
0
100
AcDbLine
 62
7
  6
CONTINUOUS
 10
907.5793319903
 20
1057.4745157661
 11
949.0793319903
 21
1057.4745157661
  0
LINE
  5
40E
100
AcDbEntity
  8
0
100
AcDbLine
 62
7
  6
CONTINUOUS
 10
1099.5793319903
 20
1057.5245157661
 11
1087.5793319903
 21
1057.5245157661
  0
LINE
  5
40F
100
AcDbEntity
  8
0
100
AcDbLine
 62
7
  6
CONTINUOUS
 10
949.0793319903
 20
1057.5245157661
 11
1060.8318545708
 21
1057.5245157661
  0
LINE
  5
410
100
AcDbEntity
  8
0
100
AcDbLine
 62
7
  6
CONTINUOUS
 10
1099.5793319903
 20
915.5245157661
 11
1099.5793319903
 21
1057.5245157661
  0
LINE
  5
411
100
AcDbEntity
  8
0
100
AcDbLine
 62
7
  6
CONTINUOUS
 10
1060.8318545708
 20
915.5245157661
 11
1063.5793319903
 21
916.5245157661
  0
LINE
  5
412
100
AcDbEntity
  8
0
100
AcDbLine
 62
7
  6
CONTINUOUS
 10
907.5793319903
 20
1065.897055098
 11
844.5793319903
 21
1065.897055098
  0
LINE
  5
413
100
AcDbEntity
  8
FASEN
100
AcDbLine
 62
7
  6
CONTINUOUS
 10
1127.5793297487
 20
1050.8245807899
 11
1119.5793291783
 21
1051.5244898665
  0
LINE
  5
414
100
AcDbEntity
  8
0
100
AcDbLine
 62
7
  6
CONTINUOUS
 10
1060.8318545708
 20
1057.5245157661
 11
1063.5793319903
 21
1056.5245157661
  0
LINE
  5
415
100
AcDbEntity
  8
FASEN
100
AcDbLine
 62
7
  6
CONTINUOUS
 10
1119.5793314442
 20
1051.5245157661
 11
1119.5793314442
 21
921.5245157661
  0
LINE
  5
416
100
AcDbEntity
  8
0
100
AcDbLine
 62
7
  6
CONTINUOUS
 10
907.5793319903
 20
1076.5245157661
 11
844.5793319903
 21
1076.5245157661
  0
LINE
  5
417
100
AcDbEntity
  8
FASEN
100
AcDbLine
 62
7
  6
CONTINUOUS
 10
1127.5793319903
 20
1050.8246064106
 11
1127.5793319903
 21
922.2244251215
  0
LINE
  5
418
100
AcDbEntity
  8
0
100
AcDbLine
 62
7
  6
CONTINUOUS
 10
1129.5793319903
 20
1021.5245157661
 11
1129.5793319903
 21
951.5245157661
  0
LINE
  5
419
100
AcDbEntity
  8
0
100
AcDbLine
 62
7
  6
CONTINUOUS
 10
1209.5793319903
 20
1006.5239706248
 11
1209.5793319903
 21
966.5250609074
  0
LINE
  5
41A
100
AcDbEntity
  8
0
100
AcDbLine
 62
7
  6
CONTINUOUS
 10
202.1959567929
 20
1065.897055098
 11
202.1959567929
 21
907.1519764341
  0
LINE
  5
41B
100
AcDbEntity
  8
0
100
AcDbLine
 62
7
  6
CONTINUOUS
 10
212.823417461
 20
896.5245157661
 11
371.5684961249
 21
896.5245157661
  0
LINE
  5
41C
100
AcDbEntity
  8
0
100
AcDbLine
 62
7
  6
CONTINUOUS
 10
221.1959567929
 20
1045.8140595322
 11
221.1959567929
 21
927.2349719999
  0
LINE
  5
41D
100
AcDbEntity
  8
0
100
AcDbLine
 62
7
  6
CONTINUOUS
 10
232.9064130268
 20
915.5245157661
 11
351.4855005591
 21
915.5245157661
  0
LINE
  5
41E
100
AcDbEntity
  8
TEIL_STARTBEZUEGE
100
AcDbLine
 62
2
  6
CENTER
 10
292.1959567929
 20
905.5245157661
 11
292.1959567929
 21
1067.5245157661
  0
LINE
  5
41F
100
AcDbEntity
  8
0
100
AcDbLine
 62
7
  6
CONTINUOUS
 10
346.6785342833
 20
1048.7852678495
 11
346.6431789443
 21
1048.7499125105
  0
LINE
  5
420
100
AcDbEntity
  8
0
100
AcDbLine
 62
7
  6
CONTINUOUS
 10
229.9705600485
 20
932.0772936147
 11
229.9352047094
 21
932.0419382756
  0
LINE
  5
421
100
AcDbEntity
  8
TEIL_STARTBEZUEGE
100
AcDbLine
 62
2
  6
CENTER
 10
373.1959567929
 20
986.5245157661
 11
211.1959567929
 21
986.5245157661
  0
LINE
  5
422
100
AcDbEntity
  8
0
100
AcDbLine
 62
7
  6
CONTINUOUS
 10
229.9352047094
 20
1041.0070932565
 11
229.9705600485
 21
1040.9717379174
  0
LINE
  5
423
100
AcDbEntity
  8
0
100
AcDbLine
 62
7
  6
CONTINUOUS
 10
346.6431789443
 20
924.2991190217
 11
346.6785342833
 21
924.2637636826
  0
LINE
  5
424
100
AcDbEntity
  8
0
100
AcDbLine
 62
7
  6
CONTINUOUS
 10
237.7133793025
 20
924.2637636826
 11
237.7487346416
 21
924.2991190217
  0
LINE
  5
425
100
AcDbEntity
  8
0
100
AcDbLine
 62
7
  6
CONTINUOUS
 10
354.4213535373
 20
1040.9717379174
 11
354.4567088764
 21
1041.0070932565
  0
LINE
  5
426
100
AcDbEntity
  8
0
100
AcDbLine
 62
7
  6
CONTINUOUS
 10
354.4567088764
 20
932.0419382756
 11
354.4213535373
 21
932.0772936147
  0
LINE
  5
427
100
AcDbEntity
  8
0
100
AcDbLine
 62
7
  6
CONTINUOUS
 10
237.7487346416
 20
1048.7499125105
 11
237.7133793025
 21
1048.7852678495
  0
LINE
  5
428
100
AcDbEntity
  8
0
100
AcDbLine
 62
7
  6
CONTINUOUS
 10
363.1959567929
 20
927.2349719999
 11
363.1959567929
 21
1045.8140595322
  0
LINE
  5
429
100
AcDbEntity
  8
0
100
AcDbLine
 62
7
  6
CONTINUOUS
 10
351.4855005591
 20
1057.5245157661
 11
232.9064130268
 21
1057.5245157661
  0
LINE
  5
42A
100
AcDbEntity
  8
0
100
AcDbLine
 62
7
  6
CONTINUOUS
 10
382.1959567929
 20
907.1519764341
 11
382.1959567929
 21
1065.897055098
  0
LINE
  5
42B
100
AcDbEntity
  8
0
100
AcDbLine
 62
7
  6
CONTINUOUS
 10
371.5684961249
 20
1076.5245157661
 11
212.823417461
 21
1076.5245157661
  0
LINE
  5
42C
100
AcDbEntity
  8
0
100
AcDbLine
 62
7
  6
CONTINUOUS
 10
1709.5159869559
 20
907.1519764341
 11
1709.5159869559
 21
1065.897055098
  0
LINE
  5
42D
100
AcDbEntity
  8
0
100
AcDbLine
 62
7
  6
CONTINUOUS
 10
1878.8885262878
 20
896.5245157661
 11
1720.1434476239
 21
896.5245157661
  0
LINE
  5
42E
100
AcDbEntity
  8
0
100
AcDbLine
 62
7
  6
CONTINUOUS
 10
1756.4977542296
 20
1051.4209190877
 11
1753.5013063325
 21
1049.6909190877
  0
LINE
  5
42F
100
AcDbEntity
  8
0
100
AcDbLine
 62
7
  6
CONTINUOUS
 10
1734.6195836342
 20
943.5062830397
 11
1736.3495836342
 21
940.5098351426
  0
LINE
  5
430
100
AcDbEntity
  8
BEZUGSACHSEN
100
AcDbLine
 62
2
  6
CENTER
 10
1728.8053088372
 20
1057.2351938847
 11
1728.8053088372
 21
1037.1351938847
  0
LINE
  5
431
100
AcDbEntity
  8
BEZUGSACHSEN
100
AcDbLine
 62
2
  6
CENTER
 10
1728.8053088372
 20
915.8138376474
 11
1728.8053088372
 21
895.7138376474
  0
LINE
  5
432
100
AcDbEntity
  8
BEZUGSACHSEN
100
AcDbLine
 62
2
  6
CENTER
 10
1728.8053088372
 20
915.8138376474
 11
1728.8053088372
 21
935.9138376474
  0
LINE
  5
433
100
AcDbEntity
  8
BEZUGSACHSEN
100
AcDbLine
 62
2
  6
CENTER
 10
1728.8053088372
 20
1057.2351938847
 11
1728.8053088372
 21
1077.3351938847
  0
LINE
  5
434
100
AcDbEntity
  8
0
100
AcDbLine
 62
7
  6
CONTINUOUS
 10
1756.4977542296
 20
1044.5009190877
 11
1759.4942021266
 21
1046.2309190877
  0
LINE
  5
435
100
AcDbEntity
  8
BEZUGSACHSEN
100
AcDbLine
 62
2
  6
CENTER
 10
1870.2266650745
 20
915.8138376474
 11
1850.1266650745
 21
915.8138376474
  0
LINE
  5
436
100
AcDbEntity
  8
BEZUGSACHSEN
100
AcDbLine
 62
2
  6
CENTER
 10
1728.8053088372
 20
915.8138376474
 11
1708.7053088372
 21
915.8138376474
  0
LINE
  5
437
100
AcDbEntity
  8
BEZUGSACHSEN
100
AcDbLine
 62
2
  6
CENTER
 10
1728.8053088372
 20
915.8138376474
 11
1748.9053088372
 21
915.8138376474
  0
LINE
  5
438
100
AcDbEntity
  8
BEZUGSACHSEN
100
AcDbLine
 62
2
  6
CENTER
 10
1870.2266650745
 20
915.8138376474
 11
1890.3266650745
 21
915.8138376474
  0
LINE
  5
439
100
AcDbEntity
  8
0
100
AcDbLine
 62
7
  6
CONTINUOUS
 10
1741.5395836342
 20
943.5062830397
 11
1739.8095836342
 21
946.5027309368
  0
LINE
  5
43A
100
AcDbEntity
  8
BEZUGSACHSEN
100
AcDbLine
 62
2
  6
CENTER
 10
1738.0795836342
 20
943.5062830397
 11
1738.0795836342
 21
924.0062830397
  0
LINE
  5
43B
100
AcDbEntity
  8
BEZUGSACHSEN
100
AcDbLine
 62
2
  6
CENTER
 10
1738.0795836342
 20
943.5062830397
 11
1738.0795836342
 21
963.0062830397
  0
LINE
  5
43C
100
AcDbEntity
  8
BEZUGSACHSEN
100
AcDbLine
 62
2
  6
CENTER
 10
1842.5342196822
 20
925.0881124444
 11
1823.0342196822
 21
925.0881124444
  0
LINE
  5
43D
100
AcDbEntity
  8
BEZUGSACHSEN
100
AcDbLine
 62
2
  6
CENTER
 10
1842.5342196822
 20
925.0881124444
 11
1862.0342196822
 21
925.0881124444
  0
LINE
  5
43E
100
AcDbEntity
  8
0
100
AcDbLine
 62
7
  6
CONTINUOUS
 10
1753.5013063325
 20
1049.6909190877
 11
1753.5013063325
 21
1046.2309190877
  0
LINE
  5
43F
100
AcDbEntity
  8
0
100
AcDbLine
 62
7
  6
CONTINUOUS
 10
1736.3495836342
 20
940.5098351426
 11
1739.8095836342
 21
940.5098351426
  0
LINE
  5
440
100
AcDbEntity
  8
BEZUGSACHSEN
100
AcDbLine
 62
2
  6
CENTER
 10
1756.4977542296
 20
1047.9609190877
 11
1756.4977542296
 21
1028.4609190877
  0
LINE
  5
441
100
AcDbEntity
  8
BEZUGSACHSEN
100
AcDbLine
 62
2
  6
CENTER
 10
1756.4977542296
 20
1047.9609190877
 11
1756.4977542296
 21
1067.4609190877
  0
LINE
  5
442
100
AcDbEntity
  8
0
100
AcDbLine
 62
7
  6
CONTINUOUS
 10
1759.4942021266
 20
1046.2309190877
 11
1759.4942021266
 21
1049.6909190877
  0
LINE
  5
443
100
AcDbEntity
  8
BEZUGSACHSEN
100
AcDbLine
 62
2
  6
CENTER
 10
1738.0795836342
 20
943.5062830397
 11
1718.5795836342
 21
943.5062830397
  0
LINE
  5
444
100
AcDbEntity
  8
BEZUGSACHSEN
100
AcDbLine
 62
2
  6
CENTER
 10
1738.0795836342
 20
943.5062830397
 11
1757.5795836342
 21
943.5062830397
  0
LINE
  5
445
100
AcDbEntity
  8
0
100
AcDbLine
 62
7
  6
CONTINUOUS
 10
1739.8095836342
 20
946.5027309368
 11
1736.3495836342
 21
946.5027309368
  0
LINE
  5
446
100
AcDbEntity
  8
0
100
AcDbLine
 62
7
  6
CONTINUOUS
 10
1736.3495836342
 20
946.5027309368
 11
1734.6195836342
 21
943.5062830397
  0
LINE
  5
447
100
AcDbEntity
  8
0
100
AcDbLine
 62
7
  6
CONTINUOUS
 10
1739.8095836342
 20
940.5098351426
 11
1741.5395836342
 21
943.5062830397
  0
LINE
  5
448
100
AcDbEntity
  8
BEZUGSACHSEN
100
AcDbLine
 62
7
  6
CONTINUOUS
 10
1811.7159869559
 20
956.4245157661
 11
1819.7159869559
 21
956.4245157661
  0
LINE
  5
449
100
AcDbEntity
  8
0
100
AcDbLine
 62
7
  6
CONTINUOUS
 10
1839.5377717851
 20
923.3581124444
 11
1842.5342196822
 21
921.6281124444
  0
LINE
  5
44A
100
AcDbEntity
  8
0
100
AcDbLine
 62
7
  6
CONTINUOUS
 10
1845.5306675793
 20
926.8181124444
 11
1842.5342196822
 21
928.5481124444
  0
LINE
  5
44B
100
AcDbEntity
  8
0
100
AcDbLine
 62
7
  6
CONTINUOUS
 10
1798.7659869559
 20
969.0405945812
 11
1798.7659869559
 21
954.5333060359
  0
LINE
  5
44C
100
AcDbEntity
  8
TEIL_STARTBEZUEGE
100
AcDbLine
 62
2
  6
CENTER
 10
1799.5159869559
 20
886.5245157661
 11
1799.5159869559
 21
1086.5245157661
  0
LINE
  5
44D
100
AcDbEntity
  8
0
100
AcDbLine
 62
7
  6
CONTINUOUS
 10
1800.2659869559
 20
954.5333060359
 11
1800.2659869559
 21
969.0405945812
  0
LINE
  5
44E
100
AcDbEntity
  8
TEIL_STARTBEZUEGE
100
AcDbLine
 62
2
  6
CENTER
 10
1699.5159869559
 20
986.5245157661
 11
1899.5159869559
 21
986.5245157661
  0
LINE
  5
44F
100
AcDbEntity
  8
BEZUGSACHSEN
100
AcDbLine
 62
7
  6
CONTINUOUS
 10
1811.7159869559
 20
956.9414124806
 11
1811.7159869559
 21
956.4253137171
  0
LINE
  5
450
100
AcDbEntity
  8
BEZUGSACHSEN
100
AcDbLine
 62
7
  6
CONTINUOUS
 10
1819.7159869559
 20
961.7102435893
 11
1819.7159869559
 21
956.4255224685
  0
LINE
  5
451
100
AcDbEntity
  8
0
100
AcDbLine
 62
7
  6
CONTINUOUS
 10
1859.2223902776
 20
1032.5391963895
 11
1857.4923902776
 21
1029.5427484924
  0
LINE
  5
452
100
AcDbEntity
  8
0
100
AcDbLine
 62
7
  6
CONTINUOUS
 10
1753.5013063325
 20
1046.2309190877
 11
1756.4977542296
 21
1044.5009190877
  0
LINE
  5
453
100
AcDbEntity
  8
0
100
AcDbLine
 62
7
  6
CONTINUOUS
 10
1862.6823902776
 20
1026.5463005953
 11
1864.4123902776
 21
1029.5427484924
  0
LINE
  5
454
100
AcDbEntity
  8
0
100
AcDbLine
 62
7
  6
CONTINUOUS
 10
1759.4942021266
 20
1049.6909190877
 11
1756.4977542296
 21
1051.4209190877
  0
LINE
  5
455
100
AcDbEntity
  8
0
100
AcDbLine
 62
7
  6
CONTINUOUS
 10
1839.5377717851
 20
926.8181124444
 11
1839.5377717851
 21
923.3581124444
  0
LINE
  5
456
100
AcDbEntity
  8
BEZUGSACHSEN
100
AcDbLine
 62
2
  6
CENTER
 10
1842.5342196822
 20
925.0881124444
 11
1842.5342196822
 21
905.5881124444
  0
LINE
  5
457
100
AcDbEntity
  8
BEZUGSACHSEN
100
AcDbLine
 62
2
  6
CENTER
 10
1842.5342196822
 20
925.0881124444
 11
1842.5342196822
 21
944.5881124444
  0
LINE
  5
458
100
AcDbEntity
  8
0
100
AcDbLine
 62
7
  6
CONTINUOUS
 10
1845.5306675793
 20
923.3581124444
 11
1845.5306675793
 21
926.8181124444
  0
LINE
  5
459
100
AcDbEntity
  8
0
100
AcDbLine
 62
7
  6
CONTINUOUS
 10
1859.2223902776
 20
1026.5463005953
 11
1862.6823902776
 21
1026.5463005953
  0
LINE
  5
45A
100
AcDbEntity
  8
BEZUGSACHSEN
100
AcDbLine
 62
2
  6
CENTER
 10
1860.9523902776
 20
1029.5427484924
 11
1841.4523902776
 21
1029.5427484924
  0
LINE
  5
45B
100
AcDbEntity
  8
BEZUGSACHSEN
100
AcDbLine
 62
2
  6
CENTER
 10
1860.9523902776
 20
1029.5427484924
 11
1880.4523902776
 21
1029.5427484924
  0
LINE
  5
45C
100
AcDbEntity
  8
0
100
AcDbLine
 62
7
  6
CONTINUOUS
 10
1862.6823902776
 20
1032.5391963895
 11
1859.2223902776
 21
1032.5391963895
  0
LINE
  5
45D
100
AcDbEntity
  8
BEZUGSACHSEN
100
AcDbLine
 62
2
  6
CENTER
 10
1860.9523902776
 20
1029.5427484924
 11
1860.9523902776
 21
1010.0427484924
  0
LINE
  5
45E
100
AcDbEntity
  8
BEZUGSACHSEN
100
AcDbLine
 62
2
  6
CENTER
 10
1860.9523902776
 20
1029.5427484924
 11
1860.9523902776
 21
1049.0427484924
  0
LINE
  5
45F
100
AcDbEntity
  8
BEZUGSACHSEN
100
AcDbLine
 62
2
  6
CENTER
 10
1756.4977542296
 20
1047.9609190877
 11
1736.9977542296
 21
1047.9609190877
  0
LINE
  5
460
100
AcDbEntity
  8
BEZUGSACHSEN
100
AcDbLine
 62
2
  6
CENTER
 10
1756.4977542296
 20
1047.9609190877
 11
1775.9977542296
 21
1047.9609190877
  0
LINE
  5
461
100
AcDbEntity
  8
BEZUGSACHSEN
100
AcDbLine
 62
2
  6
CENTER
 10
1870.2266650745
 20
1057.2351938847
 11
1870.2266650745
 21
1037.1351938847
  0
LINE
  5
462
100
AcDbEntity
  8
BEZUGSACHSEN
100
AcDbLine
 62
2
  6
CENTER
 10
1870.2266650745
 20
915.8138376474
 11
1870.2266650745
 21
895.7138376474
  0
LINE
  5
463
100
AcDbEntity
  8
BEZUGSACHSEN
100
AcDbLine
 62
2
  6
CENTER
 10
1870.2266650745
 20
915.8138376474
 11
1870.2266650745
 21
935.9138376474
  0
LINE
  5
464
100
AcDbEntity
  8
BEZUGSACHSEN
100
AcDbLine
 62
2
  6
CENTER
 10
1870.2266650745
 20
1057.2351938847
 11
1870.2266650745
 21
1077.3351938847
  0
LINE
  5
465
100
AcDbEntity
  8
0
100
AcDbLine
 62
7
  6
CONTINUOUS
 10
1842.5342196822
 20
928.5481124444
 11
1839.5377717851
 21
926.8181124444
  0
LINE
  5
466
100
AcDbEntity
  8
BEZUGSACHSEN
100
AcDbLine
 62
2
  6
CENTER
 10
1870.2266650745
 20
1057.2351938847
 11
1850.1266650745
 21
1057.2351938847
  0
LINE
  5
467
100
AcDbEntity
  8
BEZUGSACHSEN
100
AcDbLine
 62
2
  6
CENTER
 10
1728.8053088372
 20
1057.2351938847
 11
1708.7053088372
 21
1057.2351938847
  0
LINE
  5
468
100
AcDbEntity
  8
BEZUGSACHSEN
100
AcDbLine
 62
2
  6
CENTER
 10
1728.8053088372
 20
1057.2351938847
 11
1748.9053088372
 21
1057.2351938847
  0
LINE
  5
469
100
AcDbEntity
  8
BEZUGSACHSEN
100
AcDbLine
 62
2
  6
CENTER
 10
1870.2266650745
 20
1057.2351938847
 11
1890.3266650745
 21
1057.2351938847
  0
LINE
  5
46A
100
AcDbEntity
  8
0
100
AcDbLine
 62
7
  6
CONTINUOUS
 10
1857.4923902776
 20
1029.5427484924
 11
1859.2223902776
 21
1026.5463005953
  0
LINE
  5
46B
100
AcDbEntity
  8
0
100
AcDbLine
 62
7
  6
CONTINUOUS
 10
1842.5342196822
 20
921.6281124444
 11
1845.5306675793
 21
923.3581124444
  0
LINE
  5
46C
100
AcDbEntity
  8
0
100
AcDbLine
 62
7
  6
CONTINUOUS
 10
1864.4123902776
 20
1029.5427484924
 11
1862.6823902776
 21
1032.5391963895
  0
LINE
  5
46D
100
AcDbEntity
  8
0
100
AcDbLine
 62
7
  6
CONTINUOUS
 10
1889.5159869559
 20
1065.897055098
 11
1889.5159869559
 21
907.1519764341
  0
LINE
  5
46E
100
AcDbEntity
  8
0
100
AcDbLine
 62
7
  6
CONTINUOUS
 10
1720.1434476239
 20
1076.5245157661
 11
1878.8885262878
 21
1076.5245157661
  0
CIRCLE
  5
46F
100
AcDbEntity
  8
BEZUGSACHSEN
100
AcDbCircle
 62
7
  6
CONTINUOUS
 10
891.0793319903
 20
962.9245157661
 40
8.75
  0
ARC
  5
470
100
AcDbEntity
  8
0
100
AcDbCircle
 62
7
  6
CONTINUOUS
 10
233.824292006
 20
928.1528509791
 40
5.5
100
AcDbArc
 50
135.0
 51
315.0
  0
ARC
  5
471
100
AcDbEntity
  8
0
100
AcDbCircle
 62
7
  6
CONTINUOUS
 10
233.859647345
 20
928.1882063182
 40
5.5
100
AcDbArc
 50
315.0
 51
135.0
  0
ARC
  5
472
100
AcDbEntity
  8
0
100
AcDbCircle
 62
7
  6
CONTINUOUS
 10
233.824292006
 20
1044.896180553
 40
5.5
100
AcDbArc
 50
45.0
 51
225.0
  0
ARC
  5
473
100
AcDbEntity
  8
0
100
AcDbCircle
 62
7
  6
CONTINUOUS
 10
233.859647345
 20
1044.860825214
 40
5.5
100
AcDbArc
 50
225.0
 51
45.0
  0
ARC
  5
474
100
AcDbEntity
  8
0
100
AcDbCircle
 62
7
  6
CONTINUOUS
 10
350.5676215799
 20
928.1528509791
 40
5.5
100
AcDbArc
 50
225.0
 51
45.0
  0
ARC
  5
475
100
AcDbEntity
  8
0
100
AcDbCircle
 62
7
  6
CONTINUOUS
 10
350.5322662408
 20
928.1882063182
 40
5.5
100
AcDbArc
 50
45.0
 51
225.0
  0
ARC
  5
476
100
AcDbEntity
  8
0
100
AcDbCircle
 62
7
  6
CONTINUOUS
 10
292.1959567929
 20
986.5245157661
 40
120.0
100
AcDbArc
 50
131.4096221093
 51
138.5903778907
  0
ARC
  5
477
100
AcDbEntity
  8
0
100
AcDbCircle
 62
7
  6
CONTINUOUS
 10
292.1959567929
 20
986.5245157661
 40
120.0
100
AcDbArc
 50
221.4096221093
 51
228.5903778907
  0
ARC
  5
478
100
AcDbEntity
  8
0
100
AcDbCircle
 62
7
  6
CONTINUOUS
 10
292.1959567929
 20
986.5245157661
 40
120.0
100
AcDbArc
 50
311.4096221093
 51
318.5903778907
  0
ARC
  5
479
100
AcDbEntity
  8
0
100
AcDbCircle
 62
7
  6
CONTINUOUS
 10
292.1959567929
 20
986.5245157661
 40
120.0
100
AcDbArc
 50
41.4096221093
 51
48.5903778907
  0
ARC
  5
47A
100
AcDbEntity
  8
0
100
AcDbCircle
 62
7
  6
CONTINUOUS
 10
292.1959567929
 20
986.5245157661
 40
92.5
100
AcDbArc
 50
309.8640417877
 51
320.1359582123
  0
ARC
  5
47B
100
AcDbEntity
  8
0
100
AcDbCircle
 62
7
  6
CONTINUOUS
 10
292.1959567929
 20
986.5245157661
 40
92.5
100
AcDbArc
 50
219.8640417877
 51
230.1359582123
  0
ARC
  5
47C
100
AcDbEntity
  8
0
100
AcDbCircle
 62
7
  6
CONTINUOUS
 10
292.1959567929
 20
986.5245157661
 40
92.5
100
AcDbArc
 50
129.8640417877
 51
140.1359582123
  0
ARC
  5
47D
100
AcDbEntity
  8
0
100
AcDbCircle
 62
7
  6
CONTINUOUS
 10
292.1959567929
 20
986.5245157661
 40
92.5
100
AcDbArc
 50
39.8640417877
 51
50.1359582123
  0
CIRCLE
  5
47E
100
AcDbEntity
  8
ANSICHT_3D
100
AcDbCircle
 62
2
  6
CENTER
 10
292.1959567929
 20
986.5245157661
 40
82.5
  0
ARC
  5
47F
100
AcDbEntity
  8
0
100
AcDbCircle
 62
7
  6
CONTINUOUS
 10
292.1959567929
 20
986.5245157661
 40
81.5
100
AcDbArc
 50
41.2014135683
 51
48.7985864317
  0
ARC
  5
480
100
AcDbEntity
  8
0
100
AcDbCircle
 62
7
  6
CONTINUOUS
 10
292.1959567929
 20
986.5245157661
 40
81.5
100
AcDbArc
 50
311.2014135683
 51
318.7985864317
  0
ARC
  5
481
100
AcDbEntity
  8
0
100
AcDbCircle
 62
7
  6
CONTINUOUS
 10
292.1959567929
 20
986.5245157661
 40
81.5
100
AcDbArc
 50
131.2014135683
 51
138.7985864317
  0
ARC
  5
482
100
AcDbEntity
  8
0
100
AcDbCircle
 62
7
  6
CONTINUOUS
 10
292.1959567929
 20
986.5245157661
 40
81.5
100
AcDbArc
 50
221.2014135683
 51
228.7985864317
  0
CIRCLE
  5
483
100
AcDbEntity
  8
FASEN
100
AcDbCircle
 62
7
  6
CONTINUOUS
 10
292.1959567929
 20
986.5245157661
 40
65.0
  0
CIRCLE
  5
484
100
AcDbEntity
  8
FASEN
100
AcDbCircle
 62
7
  6
CONTINUOUS
 10
292.1959567929
 20
986.5245157661
 40
64.300064985
  0
CIRCLE
  5
485
100
AcDbEntity
  8
0
100
AcDbCircle
 62
7
  6
CONTINUOUS
 10
292.1959567929
 20
986.5245157661
 40
35.0
  0
CIRCLE
  5
486
100
AcDbEntity
  8
0
100
AcDbCircle
 62
7
  6
CONTINUOUS
 10
292.1959567929
 20
986.5245157661
 40
20.0
  0
ARC
  5
487
100
AcDbEntity
  8
0
100
AcDbCircle
 62
7
  6
CONTINUOUS
 10
350.5676215799
 20
1044.896180553
 40
5.5
100
AcDbArc
 50
315.0
 51
135.0
  0
ARC
  5
488
100
AcDbEntity
  8
0
100
AcDbCircle
 62
7
  6
CONTINUOUS
 10
350.5322662408
 20
1044.860825214
 40
5.5
100
AcDbArc
 50
135.0
 51
315.0
  0
CIRCLE
  5
489
100
AcDbEntity
  8
BEZUGSACHSEN
100
AcDbCircle
 62
7
  6
CONTINUOUS
 10
1738.0795836342
 20
943.5062830397
 40
7.5
  0
CIRCLE
  5
48A
100
AcDbEntity
  8
0
100
AcDbCircle
 62
7
  6
CONTINUOUS
 10
1738.0795836342
 20
943.5062830397
 40
6.5
  0
ARC
  5
48B
100
AcDbEntity
  8
0
100
AcDbCircle
 62
2
  6
CONTINUOUS
 10
1728.8053088372
 20
915.8138376474
 40
6.0
100
AcDbArc
 50
255.0
 51
195.0
  0
CIRCLE
  5
48C
100
AcDbEntity
  8
BEZUGSACHSEN
100
AcDbCircle
 62
7
  6
CONTINUOUS
 10
1728.8053088372
 20
915.8138376474
 40
5.1
  0
CIRCLE
  5
48D
100
AcDbEntity
  8
BEZUGSACHSEN
100
AcDbCircle
 62
7
  6
CONTINUOUS
 10
1756.4977542296
 20
1047.9609190877
 40
7.5
  0
CIRCLE
  5
48E
100
AcDbEntity
  8
0
100
AcDbCircle
 62
7
  6
CONTINUOUS
 10
1756.4977542296
 20
1047.9609190877
 40
6.5
  0
ARC
  5
48F
100
AcDbEntity
  8
0
100
AcDbCircle
 62
2
  6
CONTINUOUS
 10
1728.8053088372
 20
1057.2351938847
 40
6.0
100
AcDbArc
 50
255.0
 51
195.0
  0
CIRCLE
  5
490
100
AcDbEntity
  8
BEZUGSACHSEN
100
AcDbCircle
 62
7
  6
CONTINUOUS
 10
1728.8053088372
 20
1057.2351938847
 40
5.1
  0
CIRCLE
  5
491
100
AcDbEntity
  8
BEZUGSACHSEN
100
AcDbCircle
 62
7
  6
CONTINUOUS
 10
1842.5342196822
 20
925.0881124444
 40
7.5
  0
CIRCLE
  5
492
100
AcDbEntity
  8
0
100
AcDbCircle
 62
7
  6
CONTINUOUS
 10
1842.5342196822
 20
925.0881124444
 40
6.5
  0
ARC
  5
493
100
AcDbEntity
  8
0
100
AcDbCircle
 62
2
  6
CONTINUOUS
 10
1870.2266650745
 20
915.8138376474
 40
6.0
100
AcDbArc
 50
255.0
 51
195.0
  0
CIRCLE
  5
494
100
AcDbEntity
  8
BEZUGSACHSEN
100
AcDbCircle
 62
7
  6
CONTINUOUS
 10
1870.2266650745
 20
915.8138376474
 40
5.1
  0
ARC
  5
495
100
AcDbEntity
  8
0
100
AcDbCircle
 62
7
  6
CONTINUOUS
 10
1799.5159869559
 20
986.5245157661
 40
120.0
100
AcDbArc
 50
131.4096221093
 51
138.5903778907
  0
ARC
  5
496
100
AcDbEntity
  8
0
100
AcDbCircle
 62
7
  6
CONTINUOUS
 10
1799.5159869559
 20
986.5245157661
 40
120.0
100
AcDbArc
 50
41.4096221093
 51
48.5903778907
  0
ARC
  5
497
100
AcDbEntity
  8
0
100
AcDbCircle
 62
7
  6
CONTINUOUS
 10
1799.5159869559
 20
986.5245157661
 40
120.0
100
AcDbArc
 50
311.4096221093
 51
318.5903778907
  0
ARC
  5
498
100
AcDbEntity
  8
0
100
AcDbCircle
 62
7
  6
CONTINUOUS
 10
1799.5159869559
 20
986.5245157661
 40
120.0
100
AcDbArc
 50
221.4096221093
 51
228.5903778907
  0
CIRCLE
  5
499
100
AcDbEntity
  8
ANSICHT_3D
100
AcDbCircle
 62
2
  6
CENTER
 10
1799.5159869559
 20
986.5245157661
 40
100.0
  0
CIRCLE
  5
49A
100
AcDbEntity
  8
0
100
AcDbCircle
 62
7
  6
CONTINUOUS
 10
1799.5159869559
 20
986.5245157661
 40
57.15
  0
CIRCLE
  5
49B
100
AcDbEntity
  8
0
100
AcDbCircle
 62
7
  6
CONTINUOUS
 10
1799.5159869559
 20
986.5245157661
 40
49.0
  0
CIRCLE
  5
49C
100
AcDbEntity
  8
0
100
AcDbCircle
 62
7
  6
CONTINUOUS
 10
1799.5159869559
 20
986.5245157661
 40
45.0
  0
ARC
  5
49D
100
AcDbEntity
  8
0
100
AcDbCircle
 62
7
  6
CONTINUOUS
 10
1799.5159869559
 20
986.5245157661
 40
32.0
100
AcDbArc
 50
271.3429928061
 51
268.6570071939
  0
ARC
  5
49E
100
AcDbEntity
  8
0
100
AcDbCircle
 62
7
  6
CONTINUOUS
 10
1799.5159869559
 20
986.5245157661
 40
30.5
100
AcDbArc
 50
268.5909453611
 51
271.4090546389
  0
CIRCLE
  5
49F
100
AcDbEntity
  8
0
100
AcDbCircle
 62
7
  6
CONTINUOUS
 10
1799.5159869559
 20
986.5245157661
 40
17.5
  0
CIRCLE
  5
4A0
100
AcDbEntity
  8
BEZUGSACHSEN
100
AcDbCircle
 62
7
  6
CONTINUOUS
 10
1860.9523902776
 20
1029.5427484924
 40
7.5
  0
CIRCLE
  5
4A1
100
AcDbEntity
  8
0
100
AcDbCircle
 62
7
  6
CONTINUOUS
 10
1860.9523902776
 20
1029.5427484924
 40
6.5
  0
ARC
  5
4A2
100
AcDbEntity
  8
0
100
AcDbCircle
 62
2
  6
CONTINUOUS
 10
1870.2266650745
 20
1057.2351938847
 40
6.0
100
AcDbArc
 50
255.0
 51
195.0
  0
CIRCLE
  5
4A3
100
AcDbEntity
  8
BEZUGSACHSEN
100
AcDbCircle
 62
7
  6
CONTINUOUS
 10
1870.2266650745
 20
1057.2351938847
 40
5.1
  0
SPLINE
  5
4A4
100
AcDbEntity
  8
0
100
AcDbSpline
 62
7
  6
CONTINUOUS
 70
0
 71
3
 72
9
 73
5
 74
0
 42
0.0000001
 43
0.0000001
 44
0.0000000001
 40
0.0
 40
0.0
 40
0.0
 40
0.0
 40
0.5017533764
 40
1.0
 40
1.0
 40
1.0
 40
1.0
 10
949.0793319903
 20
1026.6287237747
 30
0.0
 10
949.0793319903
 20
1030.0277592732
 30
0.0
 10
948.494887578
 20
1036.8013105576
 30
0.0
 10
945.6415123415
 20
1043.3160161264
 30
0.0
 10
943.351848019
 20
1045.7959254001
 30
0.0
  0
SPLINE
  5
4A5
100
AcDbEntity
  8
0
100
AcDbSpline
 62
7
  6
CONTINUOUS
 70
0
 71
3
 72
9
 73
5
 74
0
 42
0.0000001
 43
0.0000001
 44
0.0000000001
 40
0.0
 40
0.0
 40
0.0
 40
0.0
 40
0.4982463539
 40
1.0
 40
1.0
 40
1.0
 40
1.0
 10
943.351848019
 20
927.2531061321
 30
0.0
 10
945.6415111072
 20
929.733014069
 30
0.0
 10
948.4948871202
 20
936.2477189797
 30
0.0
 10
949.0793319903
 20
943.0212704238
 30
0.0
 10
949.0793319903
 20
946.4203077574
 30
0.0
  0
SPLINE
  5
4A6
100
AcDbEntity
  8
0
100
AcDbSpline
 62
7
  6
CONTINUOUS
 70
0
 71
3
 72
16
 73
12
 74
0
 42
0.0000001
 43
0.0000001
 44
0.0000000001
 40
0.0
 40
0.0
 40
0.0
 40
0.0
 40
0.2500536358
 40
0.3750896947
 40
0.500122122
 40
0.6251419692
 40
0.7501146244
 40
0.8126369108
 40
0.8751481939
 40
0.9376096565
 40
1.0
 40
1.0
 40
1.0
 40
1.0
 10
990.0615148226
 20
1026.5401377155
 30
0.0
 10
995.4907462647
 20
1024.3907307033
 30
0.0
 10
1003.5737828991
 20
1021.0014957017
 30
0.0
 10
1014.1051537762
 20
1015.9478038297
 30
0.0
 10
1021.8235535942
 20
1011.7963397614
 30
0.0
 10
1029.2502185698
 20
1007.143370793
 30
0.0
 10
1035.0284314471
 20
1002.6396727302
 30
0.0
 10
1039.1001502764
 20
998.4399384882
 30
0.0
 10
1041.711439626
 20
994.9022242334
 30
0.0
 10
1043.5974840793
 20
990.91261072
 30
0.0
 10
1044.0793319903
 20
987.9814472643
 30
0.0
 10
1044.0793319903
 20
986.5245157661
 30
0.0
  0
SPLINE
  5
4A7
100
AcDbEntity
  8
0
100
AcDbSpline
 62
7
  6
CONTINUOUS
 70
0
 71
3
 72
16
 73
12
 74
0
 42
0.0000001
 43
0.0000001
 44
0.0000000001
 40
0.0
 40
0.0
 40
0.0
 40
0.0
 40
0.0623903941
 40
0.1248518131
 40
0.1873631083
 40
0.2498854063
 40
0.374858074
 40
0.4998779101
 40
0.6249103266
 40
0.7499463775
 40
1.0
 40
1.0
 40
1.0
 40
1.0
 10
1044.0793319903
 20
986.5245157661
 30
0.0
 10
1044.0793319903
 20
985.0675830818
 30
0.0
 10
1043.5974852945
 20
982.1364190388
 30
0.0
 10
1041.7114379437
 20
978.1468063315
 30
0.0
 10
1039.1001499251
 20
974.6090918709
 30
0.0
 10
1035.0284303339
 20
970.4093569662
 30
0.0
 10
1029.2502162439
 20
965.9056600226
 30
0.0
 10
1021.8235519954
 20
961.2526902994
 30
0.0
 10
1014.1051524082
 20
957.1012271468
 30
0.0
 10
1003.5737822281
 20
952.0475355014
 30
0.0
 10
995.4907459956
 20
948.6583007223
 30
0.0
 10
990.0615148226
 20
946.5088938166
 30
0.0
  0
ENDSEC
  0
SECTION
  2
OBJECTS
  0
DICTIONARY
  5
C
100
AcDbDictionary
280
0
281
1
  3
ACAD_GROUP
350
D
  3
ACAD_MLINESTYLE
350
17
  3
ACAD_LAYOUT
350
1A
  3
ACAD_PLOTSETTINGS
350
19
  3
ACAD_PLOTSTYLENAME
350
E
  0
DICTIONARY
  5
D
102
{ACAD_REACTORS
330
C
102
}
100
AcDbDictionary
280
0
281
1
  0
ACDBDICTIONARYWDFLT
  5
E
102
{ACAD_REACTORS
330
C
102
}
100
AcDbDictionary
281
1
  3
Normal
350
F
100
AcDbDictionaryWithDefault
340
F
  0
DICTIONARY
  5
17
102
{ACAD_REACTORS
330
C
102
}
100
AcDbDictionary
280
0
281
1
  3
Standard
350
18
  0
DICTIONARY
  5
19
102
{ACAD_REACTORS
330
C
102
}
100
AcDbDictionary
281
1
  0
DICTIONARY
  5
1A
102
{ACAD_REACTORS
330
C
102
}
100
AcDbDictionary
281
1
  3
Model
350
4A8
  3
Layout1
350
4A9
  0
ACDBPLACEHOLDER
  5
F
102
{ACAD_REACTORS
330
E
102
}
  0
MLINESTYLE
  5
18
102
{ACAD_REACTORS
330
17
102
}
100
AcDbMlineStyle
  2
STANDARD
 70
0
  3

 62
256
 51
90.0
 52
90.0
 71
2
 49
0.5
 62
256
  6
BYLAYER
 49
-0.5
 62
256
  6
BYLAYER
  0
LAYOUT
  5
4A8
102
{ACAD_REACTORS
330
1A
102
}
100
AcDbPlotSettings
  1

  2
none_device
  4
ISO_A3_(420.00_x_297.00_MM)
  6

 40
0.0
 41
0.0
 42
0.0
 43
0.0
 44
420.0
 45
297.0
 46
0.0
 47
0.0
 48
0.0
 49
0.0
140
0.0
141
0.0
142
1.0
143
1.0
 70
1024
 72
1
 73
0
 74
0
  7

 75
0
147
1.0
148
0.0
149
0.0
100
AcDbLayout
  1
Model
 70
0
 71
0
 10
0.0
 20
0.0
 11
420.0
 21
297.0
 12
0.0
 22
0.0
 32
0.0
 14
0.0
 24
0.0
 34
0.0
 15
0.0
 25
0.0
 35
0.0
146
0.0
 13
0.0
 23
0.0
 33
0.0
 16
1.0
 26
0.0
 36
0.0
 17
0.0
 27
1.0
 37
0.0
 76
0
330
21A
345
0
346
0
  0
LAYOUT
  5
4A9
102
{ACAD_REACTORS
330
1A
102
}
100
AcDbPlotSettings
  1

  2
none_device
  4
ISO_A3_(420.00_x_297.00_MM)
  6

 40
0.0
 41
0.0
 42
0.0
 43
0.0
 44
420.0
 45
297.0
 46
0.0
 47
0.0
 48
0.0
 49
0.0
140
0.0
141
0.0
142
1.0
143
1.0
 70
0
 72
1
 73
0
 74
0
  7

 75
0
147
1.0
148
0.0
149
0.0
100
AcDbLayout
  1
Layout1
 70
0
 71
1
 10
0.0
 20
0.0
 11
420.0
 21
297.0
 12
0.0
 22
0.0
 32
0.0
 14
0.0
 24
0.0
 34
0.0
 15
0.0
 25
0.0
 35
0.0
146
0.0
 13
0.0
 23
0.0
 33
0.0
 16
1.0
 26
0.0
 36
0.0
 17
0.0
 27
1.0
 37
0.0
 76
0
330
21B
345
0
346
0
  0
ENDSEC
  0
EOF
